#TITLE:LA LA LA LA YO-DEL;
#SUBTITLE:(Jodler);
#ARTIST:DJ Simon;
#TITLETRANSLIT:;
#SUBTITLETRANSLIT:;
#ARTISTTRANSLIT:;
#CREDIT:Timer Rabbit;
#BANNER:jodler_bn.png;
#BACKGROUND:jodler_bg.png;
#LYRICSPATH:;
#CDTITLE:timerrabbit.png;
#MUSIC:jodler.mp3;
#OFFSET:0.000;
#SAMPLESTART:36.364;
#SAMPLELENGTH:12.000;
#SELECTABLE:YES;
#BPMS:0.000=165.000;
#STOPS:;
#BGCHANGES:;

//---------------dance-single - ----------------
#NOTES:
     dance-single:
     :
     Easy:
     6:
     0.373,0.366,0.085,0.032,0.000:
0000
0000
0000
0000
,
0000
0000
0000
0000
,
0000
0000
0000
0000
,
0000
0000
0000
0000
,
0000
0000
1000
0000
,
0001
0000
0010
0000
,
0100
0000
0000
1000
0000
0100
0000
0010
,
0000
0001
0000
1000
0000
1000
0000
1000
,
0000
1000
0000
0001
0001
0000
0001
0001
,
0000
0001
0000
1000
1000
0000
1000
1000
,
0000
1000
0000
0010
0010
0000
0010
0010
,
0000
0010
0000
0100
0100
0000
0100
0010
,
0100
0000
0000
0001
0001
0000
0001
0001
,
0000
0001
0000
0010
0010
0000
0010
0010
,
0000
0010
0000
0100
0000
0100
0000
0100
,
0000
0100
0000
0100
0000
0100
0000
0100
,
0000
0100
0000
0001
0000
0010
0000
0100
,
0000
1000
0000
0100
0000
0010
0000
0001
,
0000
0010
0000
0100
0000
1000
0000
0100
,
0000
0010
0000
0001
0000
0010
0000
0100
,
0000
1000
0000
0001
0000
0100
0000
0010
,
0000
1000
0000
0010
0000
0100
0000
0001
,
0000
0000
0000
0010
0000
0000
0000
1000
,
0000
0000
0000
0100
0000
0000
0000
0000
,
0000
0000
0000
1001
0000
1001
0000
1001
,
0000
1001
0000
1000
0000
1000
0000
1000
,
0000
1000
0000
1000
0100
0000
0000
0000
,
0000
0000
0000
0001
0000
0001
0000
0001
,
0000
0001
0000
0001
0010
0000
0000
0000
,
0000
0000
0000
0100
0000
0100
0000
0100
,
0000
0100
0000
0100
0010
0000
0000
0000
,
0000
0000
0000
0010
0000
0010
0000
0010
,
0000
0010
0000
0010
0100
0000
0000
0000
,
0000
0000
0000
1000
0100
0000
0010
0001
,
0000
0001
0000
0001
0000
0010
0000
1000
,
0000
0001
0100
0001
0000
1000
0010
1000
,
0000
0100
0010
0100
0000
0001
1000
0002
,
0000
0000
0000
0000
0000
0003
0000
0000
,
0000
0000
0000
0000
,
0000
0000
0000
1000
1000
0000
1000
1000
,
0000
1000
0000
0010
0010
0000
0010
0010
,
0000
0010
0000
0001
0001
0000
0001
0001
,
0000
0001
0000
0001
1000
0100
0000
0010
,
0001
1000
0000
0100
0100
0000
0100
0100
,
0000
0100
0000
0001
0001
0000
0001
0001
,
0000
0001
0000
1000
0000
0001
0000
1000
,
0000
0001
0000
1000
0000
0001
0000
0001
,
0000
0001
0000
1000
0000
0100
0000
0010
,
0000
0001
0000
0010
0000
0100
0000
1000
,
0000
0010
0000
0100
0000
0010
0000
0100
,
0000
0001
0000
1000
0000
0001
0000
2000
,
0000
3000
0000
1001
0000
1001
0000
1001
,
0000
1001
0000
0100
0100
0000
0100
0100
,
0000
0100
0000
0010
0010
0000
0010
0010
,
0000
0010
0000
0001
0001
0000
0001
0001
,
0000
0001
0000
1000
0100
0001
0000
0001
,
0010
1000
0000
1000
1000
0000
1000
1000
,
0000
1000
0000
0010
0010
0000
0010
0010
,
0000
0010
0000
0001
1000
0100
0010
0001
,
0010
0100
0000
0100
0000
0100
0000
0100
,
0000
0000
0000
1000
1000
0010
0010
0100
,
0100
0001
0001
0001
0000
1000
0000
0002
,
0000
0000
0003
0000
;

//---------------dance-single - ----------------
#NOTES:
     dance-single:
     :
     Medium:
     7:
     0.446,0.566,0.160,0.021,0.000:
0000
0000
0000
0000
,
0000
0000
0000
0000
,
0000
0000
0000
0000
,
0000
0000
0000
0000
,
0000
0000
0000
1000
0100
0000
0010
0001
,
0000
0001
0100
0000
0010
1000
0000
0100
,
0010
0000
0001
0010
0010
0100
0100
0001
,
0001
1000
1000
0001
0000
1000
0000
0001
,
0000
1000
0000
1000
0100
0000
0100
0010
,
0000
0001
0000
0001
0010
0000
0100
1000
,
0000
1000
0000
0010
0100
0000
0100
0010
,
0000
0001
0000
0010
1000
0000
0100
0001
,
0010
0000
0000
1000
0001
0000
0010
0100
,
0000
0010
0000
0001
0100
0000
1000
0010
,
0000
0001
0000
1000
0100
0010
0100
0001
,
0010
0100
1000
0000
0010
0000
0100
0000
,
0001
0000
0000
0001
0000
0101
0000
1000
,
0000
1010
0000
0100
0000
0101
0000
0010
,
0000
1010
0000
1000
0000
0011
0000
0001
,
0000
1010
0000
0100
0000
1100
0000
0010
,
0000
0101
0000
0001
0000
1000
0000
0100
,
0000
0010
0000
0001
0000
0010
0000
0100
,
0000
1000
0000
0001
0000
0000
0000
1000
,
0000
0000
0000
0010
0000
0000
0000
0100
,
0000
0000
0000
0101
0000
0101
0000
0101
,
0000
0101
0000
1000
0000
0100
0000
1000
,
0000
0100
0000
1000
0100
0000
0000
0000
,
0000
0000
0000
0001
0000
0100
0000
0001
,
0000
0100
0000
0001
0100
0000
0000
0000
,
0000
0000
0000
1000
0100
0010
0001
0010
,
0100
1000
0100
0010
0001
0010
0100
1000
,
0100
0010
0001
0010
0100
1000
0100
0010
,
0001
0010
0100
1000
0100
0010
0001
1000
,
0001
1000
0001
1000
0100
0000
0010
0001
,
0000
0010
0000
0010
0100
1000
0010
0010
,
0000
0000
0001
0100
0000
0010
1000
0100
,
0000
0010
0001
0100
0000
0100
0010
0100
,
0020
0000
0000
0030
,
0000
0000
0000
0000
,
0000
0000
0000
1000
0100
0000
0010
0001
,
0000
0001
0000
0001
0010
0000
0100
1000
,
0000
1000
0000
0010
0100
0000
0100
0010
,
0000
0010
0000
0001
1000
0001
0000
0100
,
0010
0100
0000
1000
0100
0000
0001
0010
,
0000
0010
0000
0100
1000
0000
0100
0001
,
0000
0001
0000
0001
0010
0100
1000
0100
,
0010
0001
0010
0000
1000
0000
1000
0000
,
1000
0000
0000
1000
0001
0000
0001
1000
,
0000
1000
0001
0000
0100
0010
0000
0010
,
0100
0000
0100
0010
0000
1000
0100
0000
,
0010
0001
0000
0010
0100
0000
0100
0001
,
0000
0100
1000
0000
1001
0000
1001
0000
,
1001
0000
0000
1000
0010
0000
0010
0001
,
0000
0001
0000
0001
0010
0000
0100
1000
,
0000
1000
0000
1000
0001
0000
0001
1000
,
0000
1000
0000
0100
0010
0100
0000
0001
,
1000
0001
0000
1000
0100
0000
0010
0001
,
0000
0001
0000
0001
0100
0000
0100
1000
,
0000
1000
0000
1000
0000
0001
0000
1000
,
0000
0001
0000
1000
0000
0001
0000
1000
,
0000
0000
0000
0000
0100
0100
0010
0010
,
0001
0001
0000
1000
0000
0001
0000
2000
,
0000
0000
3000
0000
;

//---------------dance-single - ----------------
#NOTES:
     dance-single:
     :
     Hard:
     9:
     0.559,0.699,0.266,0.043,0.059: // measure 1
0000
0000
0000
0000
,  // measure 2
0000
0000
0000
0000
,  // measure 3
0000
0000
0000
0000
,  // measure 4
0000
0000
0000
0000
,  // measure 5
0000
0000
0000
1000
1000
0000
0001
0001
,  // measure 6
0000
0010
0010
0000
0100
0100
0000
1000
,  // measure 7
0001
0000
0000
0010
0010
0001
0001
0100
,  // measure 8
0100
1000
1000
0001
0000
1000
0000
0001
,  // measure 9
0000
1000
0000
1000
0100
0000
0010
0010
,  // measure 10
0000
0010
0000
0001
0100
0000
0010
0010
,  // measure 11
0000
0010
0000
0010
1000
0000
0100
1000
,  // measure 12
0000
0100
0000
0010
0001
0000
0100
0001
,  // measure 13
0100
1000
0000
0001
0010
0000
0100
0100
,  // measure 14
0000
0100
0000
1000
0010
0000
0100
0100
,  // measure 15
0000
0100
0000
1000
0001
1000
0001
1000
,  // measure 16
0001
1000
0001
1000
0001
2000
0001
0000
,  // measure 17
3001
0000
0100
0010
0001
0011
0001
0010
,  // measure 18
0100
1100
1000
0100
0010
1010
0010
0100
,  // measure 19
0001
0101
0010
1000
0100
1100
0100
0001
,  // measure 20
0010
0011
0001
0010
0100
1010
1000
0010
,  // measure 21
0100
0101
0010
1000
0100
0001
0010
0001
,  // measure 22
0100
1000
0010
1000
0100
0001
0010
0001
,  // measure 23
0100
1000
1000
0100
0010
0001
0010
0100
,  // measure 24
1000
0100
0010
0001
0000
1000
0000
0001
,  // measure 25
0000
0000
0000
1100
0000
0101
0000
1100
,  // measure 26
0000
0000
0101
0000
0000
0000
1000
0010
1000
0000
0000
0000
1000
0000
0000
0000
,  // measure 27
1000
0000
0000
0000
1000
0100
0000
0000
0000
0000
0000
0001
1000
0001
0000
0000
,  // measure 28
0000
0000
0000
0000
0000
0000
0001
0100
0001
0000
0000
0000
0001
0000
0000
0000
,  // measure 29
0001
0000
0000
0000
0001
0010
0000
0000
0000
0000
0100
0010
0100
0000
0000
0000
,  // measure 30
0010
0100
0000
0000
0000
0000
1000
0000
0100
0000
0010
0000
0001
0000
0010
0000
,  // measure 31
0100
1000
0100
0010
0001
0010
0100
1000
,  // measure 32
0100
0010
0001
0010
0100
1000
0100
0010
,  // measure 33
0001
0000
0010
0000
0100
0000
1000
0000
0100
0000
0010
0000
0001
0000
1000
0001
,  // measure 34
1000
0001
1000
0001
0000
0000
1000
0000
0100
0000
0000
0000
0010
0000
0001
0000
,  // measure 35
0000
0100
0000
0010
1000
0100
0010
0001
,  // measure 36
0000
0000
0001
1000
0000
1000
0001
1000
,  // measure 37
0000
0100
0010
0100
0000
0001
0010
0200
,  // measure 38
0000
0000
0000
0300
0000
0100
0010
0001
,  // measure 39
0000
0000
0001
0000
0001
0010
0100
1000
,  // measure 40
0000
1000
0000
0010
1000
0000
0001
0100
,  // measure 41
0000
1010
0000
0100
0001
0000
0010
0001
,  // measure 42
0000
0011
0000
0010
0100
0000
0100
0010
,  // measure 43
0000
0110
0000
0010
0100
0101
0000
0100
,  // measure 44
0010
1100
0000
0001
0100
0000
0010
0001
,  // measure 45
0000
0101
0000
0100
0001
0000
0010
1000
,  // measure 46
0000
1100
0000
0100
0010
0100
0010
0100
,  // measure 47
0010
0100
0010
0100
0020
0000
0100
0000
,  // measure 48
0130
0000
0000
0010
0010
0000
0100
0100
,  // measure 49
0000
0001
0001
0000
1000
1000
0000
0010
,  // measure 50
0001
0000
1000
0100
0000
0010
1000
0000
,  // measure 51
0001
0100
0000
0100
0010
0000
0010
0100
,  // measure 52
0000
0001
1000
0000
1001
0000
1001
0000
,  // measure 53
1001
0000
0000
1000
0010
0000
0001
0010
,  // measure 54
0000
0110
0000
0001
0100
0000
1000
0100
,  // measure 55
0000
1001
0000
0001
0100
0000
0010
1000
,  // measure 56
0000
0110
0000
1000
0010
0100
0000
0001
,  // measure 57
0100
0010
0000
1000
1000
0000
0001
0001
,  // measure 58
0000
0001
0000
0010
0010
0000
0100
0100
,  // measure 59
0000
0100
0000
0001
0010
0100
1000
0100
,  // measure 60
0010
0001
0010
0100
1000
0000
0001
0000
,  // measure 61
1000
0000
0000
1000
1000
0010
0010
0001
,  // measure 62
0001
1000
1000
0001
0000
1000
0000
0002
,  // measure 63
0000
0000
0003
0000
;
