#TITLE:Koi nno Miracle;
#SUBTITLE:(Timer's STEP REMAKE);
#ARTIST:RuRuRu SYSTEM;
#TITLETRANSLIT:;
#SUBTITLETRANSLIT:;
#ARTISTTRANSLIT:;
#CREDIT:Timer Rabbit;
#BANNER:OLP_bn.PNG;
#BACKGROUND:OLP_bg.PNG;
#LYRICSPATH:;
#CDTITLE:timerrabbit.png;
#MUSIC:OLP.mp3;
#OFFSET:0.000;
#SAMPLESTART:57.822;
#SAMPLELENGTH:12.000;
#SELECTABLE:YES;
#BPMS:0.000=175.000;
#STOPS:;
#BGCHANGES:;

//---------------dance-single - ----------------
#NOTES:
     dance-single:
     :
     Easy:
     3:
     0.203,0.282,0.043,0.060,0.000: // measure 1
0000
0000
0000
0000
,  // measure 2
0000
0000
0000
0000
,  // measure 3
0000
0000
0000
0000
,  // measure 4
0000
0000
0000
0000
,  // measure 5
0000
1000
0010
0000
,  // measure 6
0001
0100
0000
0000
,  // measure 7
0010
1000
0000
0000
,  // measure 8
0100
0010
0000
0000
,  // measure 9
1001
1000
0000
0001
,  // measure 10
0000
0100
0000
0010
,  // measure 11
0000
1000
0001
1000
,  // measure 12
0000
0100
0010
0100
,  // measure 13
0010
0001
0000
1000
,  // measure 14
0000
0100
0000
0010
,  // measure 15
0000
0001
1000
0001
,  // measure 16
0000
0110
0000
1001
,  // measure 17
0000
0010
0000
0100
,  // measure 18
0000
0001
0000
1000
,  // measure 19
0000
0010
0100
0010
,  // measure 20
0000
1000
0001
1000
,  // measure 21
0001
0100
0000
0100
,  // measure 22
0000
0001
0000
0010
,  // measure 23
0000
1000
0001
1000
,  // measure 24
0001
0100
0010
0100
,  // measure 25
0000
1000
0000
0100
,  // measure 26
0000
0001
0000
0010
,  // measure 27
0000
0000
0000
0000
,  // measure 28
0000
0000
0000
0000
,  // measure 29
0000
0001
0000
0100
,  // measure 30
0000
0010
0000
1000
,  // measure 31
0000
0000
0000
0000
,  // measure 32
0000
0000
0000
0000
,  // measure 33
0000
1000
0000
0010
,  // measure 34
0000
0100
0000
0001
,  // measure 35
0000
0000
0000
0000
,  // measure 36
0000
0000
0000
0000
,  // measure 37
0000
0100
0000
0010
,  // measure 38
0000
1000
0000
0001
,  // measure 39
1000
0000
0000
0000
,  // measure 40
0000
0000
0000
0000
,  // measure 41
0000
0200
0000
0000
,  // measure 42
0000
0000
0000
0300
,  // measure 43
0000
1000
0001
1000
,  // measure 44
0000
0100
0010
0100
,  // measure 45
0000
0001
0010
0100
,  // measure 46
1000
0100
0010
0002
,  // measure 47
0003
0001
0000
1000
,  // measure 48
0000
0000
0001
0000
,  // measure 49
0000
1000
0000
0010
,  // measure 50
0000
0000
0000
0000
,  // measure 51
0000
1000
0010
0001
,  // measure 52
0000
0001
0100
1000
,  // measure 53
0000
1000
0100
0010
,  // measure 54
0001
0010
0100
2000
,  // measure 55
3000
1000
0000
0001
,  // measure 56
0100
0020
0000
2030
,  // measure 57
0000
3200
0000
0000
,  // measure 58
0300
0000
0000
1000
,  // measure 59
0000
0001
0000
1000
,  // measure 60
0000
0100
0000
0000
,  // measure 61
0000
0001
0000
0100
,  // measure 62
0000
0010
0000
0000
,  // measure 63
0000
1000
0100
0001
,  // measure 64
0010
0000
0100
0010
,  // measure 65
0001
0100
0000
1000
,  // measure 66
0000
0000
0000
0001
,  // measure 67
0000
0010
0000
0100
,  // measure 68
0000
1000
0000
0000
,  // measure 69
0000
0100
0000
0010
,  // measure 70
0000
0001
0000
0000
,  // measure 71
0000
0001
0010
0100
,  // measure 72
1000
0000
0110
0000
,  // measure 73
0000
1001
1000
0010
,  // measure 74
0000
0001
0100
0000
,  // measure 75
0000
0010
1000
0000
,  // measure 76
0000
0100
0010
0000
,  // measure 77
1000
0010
0000
0001
,  // measure 78
0100
0000
0000
0010
,  // measure 79
1000
0000
0000
0100
,  // measure 80
0010
0000
0000
0001
,  // measure 81
1000
0002
0000
0000
,  // measure 82
0000
0000
0000
0000
,  // measure 83
0000
0003
0000
0000
;

//---------------dance-single - Copied from----------------
#NOTES:
     dance-single:
     Copied from:
     Medium:
     5:
     0.347,0.458,0.300,0.223,0.000:
0000
0000
0000
0000
,
0000
0000
0000
0000
,
0000
0000
0000
0000
,
0000
0000
0000
0000
,
0000
1001
0000
0000
,
0110
0011
0000
0000
,
1100
1010
0000
0000
,
0101
0000
0000
0000
0000
0000
0000
0100
,
0100
0100
0001
0000
0100
0000
0010
0000
,
1000
0100
0010
0001
,
0000
0100
0010
1000
,
0100
0000
0000
0010
0000
0100
0000
0001
,
0000
0010
1000
0000
0010
0000
0100
0000
,
0001
0000
0010
0000
0100
1000
0000
0000
,
0000
0001
0000
1000
0000
0001
0000
1000
,
0000
0000
0000
0010
0100
0000
0000
0100
,
0010
1000
0010
0001
,
0100
0010
1000
0100
,
0000
0010
0001
0100
,
0010
0000
0000
0100
0000
0010
0000
1000
,
0000
0100
0010
0000
1000
0000
0001
0000
,
0100
0000
0010
0000
0001
1000
0000
0000
,
0000
1000
0001
0010
,
0100
0000
1000
0001
1000
0001
0000
0000
,
1000
0100
0001
0010
,
1000
0100
0001
0010
,
0001
0000
0000
0000
,
0000
0000
0000
0000
,
0000
0001
0100
1000
,
0010
0001
0100
1000
,
0100
0000
0000
0000
,
0000
0000
0000
0000
,
1000
0100
0010
0001
,
0010
0100
1000
0110
,
1001
0000
0000
0000
,
0000
0000
0000
0000
,
0001
0010
0100
1000
,
0100
0010
0001
1001
,
0110
0000
0000
0000
,
0000
0000
0000
0000
,
0000
0100
0100
0100
,
0100
0100
0100
0100
,
0000
1000
0001
0100
,
0010
1000
0100
0001
,
0010
1100
0011
0101
,
1010
1000
0001
1000
,
0001
1000
0000
0100
,
0010
0100
0010
0001
,
1000
0002
0000
2003
,
0000
3000
0000
0000
,
0000
0010
0100
1000
,
0001
0100
0010
0001
,
1000
1010
0101
0011
,
1100
0100
0010
0100
,
0010
0100
0000
0001
,
1000
0002
0000
2003
,
0000
3020
0000
0000
,
0030
0000
0000
1000
,
0001
0200
0320
0032
,
2003
3002
0003
0100
,
0010
2000
3020
0230
,
0302
0023
0030
0000
,
0001
0010
0100
1000
,
0100
0010
0001
1000
,
0001
0000
2000
0000
0000
0000
3001
1000
,
0000
0000
0000
0000
,
0010
0100
0020
0230
,
2300
0000
3002
0000
0003
0000
0000
0001
,
0000
1000
0000
0002
0000
0203
0000
2300
,
0000
3020
0000
0032
0000
0003
0000
0000
,
0001
0010
0100
1000
,
0100
0110
0000
1001
,
0000
1001
0000
0000
,
0110
0011
0000
0000
,
1100
1010
0000
0000
,
0101
1001
0000
0000
,
0110
0011
0000
0000
,
1100
1010
0000
0000
,
0101
1001
0000
0000
,
0110
0011
0000
1000
,
0001
0000
1000
0002
0000
0000
0000
0000
,
0000
0000
0000
0000
,
0000
0003
0000
0000
;

//---------------dance-single - Copied from----------------
#NOTES:
     dance-single:
     Copied from:
     Hard:
     7:
     0.574,0.599,0.454,0.377,0.000:
0000
0000
0000
0000
,
0000
0000
0000
0000
,
0000
0000
0000
0000
,
0000
0000
0000
0000
,
0000
0000
0101
0000
0010
1000
0000
0100
,
0001
0000
1100
0000
0010
0001
0000
0100
,
1000
0000
1001
0000
0010
0100
0000
1000
,
0001
0000
0110
0000
0010
0001
0000
0100
,
1000
0000
0100
0000
0010
1000
0100
0000
,
0010
0001
0100
1000
0100
0010
0001
0000
,
0000
0000
0001
0100
0001
0000
1000
0010
,
1000
0000
0100
1000
0100
0000
0010
0001
,
0010
0000
1000
0010
0100
0010
0001
0100
,
1000
0000
1000
0100
0010
0001
0001
0000
,
0000
0000
0001
0010
0100
1000
1000
1000
,
0000
0000
0000
0011
1100
0000
0000
1010
,
0101
0000
0010
0000
0100
0001
0010
0000
,
0100
1000
0010
0100
0010
0001
0100
0000
,
0000
0000
1000
0100
1000
0100
0001
0010
,
0001
0000
0001
0100
0001
0100
1000
0010
,
1000
0000
0100
0010
0001
0010
0100
1000
,
0010
0000
1000
0010
0001
0100
1000
0000
,
0000
1100
0011
0101
,
1010
0000
0001
1000
0001
1000
0000
0000
,
1000
0010
0100
0000
0010
0100
0001
1000
,
0100
0010
0001
1000
0001
0100
0010
0010
,
0010
2000
3002
0023
,
0230
0320
0032
2003
,
3002
0003
0100
0010
1000
0000
0100
0010
,
0001
0100
0010
0000
1000
0001
0010
0100
,
1000
1000
0000
2000
0000
0000
0000
3200
,
0000
0320
0000
0032
0000
0023
0000
0230
,
0000
0300
0001
0010
0001
0000
1000
0100
,
0010
0001
0010
0100
0001
0010
1000
0100
,
1000
1000
0000
0000
0002
0000
0023
0000
,
0230
2300
3200
0320
,
0032
0003
0100
0010
0100
0000
1000
0001
,
1000
0001
1000
0000
0000
1000
0100
0000
,
0010
0000
0000
2000
0000
3020
0000
0000
,
0000
0230
0000
0302
0000
2003
0000
0000
,
3000
0100
0100
0100
,
0110
0120
0100
0100
,
0130
0000
1000
0000
0001
0010
0001
0000
,
1000
0100
1000
0000
0010
0001
0010
0000
,
0110
1010
0101
1100
,
0011
0002
2003
3200
,
0320
0130
0000
1000
,
0001
0100
0010
1000
,
0100
0000
0001
0000
0000
0000
0001
1000
,
0000
0000
0010
0100
0010
0100
0010
0000
,
1000
0001
1000
0000
1000
0100
1000
0000
,
0001
0010
0001
0000
0001
0100
0001
0000
,
1001
0011
1100
0101
,
1010
2000
3002
0023
,
0230
0310
0000
0010
,
0100
0002
0000
2003
,
0000
3200
0000
0000
,
0000
0000
0301
1000
0001
1000
0001
0000
,
1000
0001
0010
0100
0000
1100
0000
0000
,
0011
0000
0101
0000
0000
1000
0000
0010
,
0100
0001
0000
0101
0000
0000
1010
0000
,
1100
0022
0000
0033
,
0000
0001
0100
0010
1000
0000
0100
0010
,
0001
1000
0100
0000
0010
1000
0100
0000
,
0110
0000
0000
1001
0000
0000
0010
0100
,
0000
0000
0001
0100
0010
1000
0100
0000
,
0001
1000
0100
0010
0000
0011
0000
0000
,
1100
0000
0101
0000
0000
0001
0000
0100
,
0010
1000
0000
0011
0000
0000
1100
0000
,
0011
0202
0000
0303
,
0000
1000
0010
0100
0001
0000
0010
0100
,
1000
0001
0010
0000
0100
0001
0010
0000
,
1001
0000
0101
0000
0010
1000
0000
0100
,
0001
0000
1100
0000
0010
0001
0000
0100
,
1000
0000
1001
0000
0010
0100
0000
1000
,
0001
0000
0110
0000
0010
0001
0000
0100
,
1000
0000
0011
0000
0001
0100
0000
0010
,
1000
0000
1100
0000
0010
0001
0000
0100
,
1000
0000
1010
0000
0010
0100
0000
0001
,
0100
0000
0101
0000
0100
0010
0000
1001
,
1001
0000
0110
2002
0000
0000
0000
0000
,
0000
0000
0000
0000
,
0000
3003
0000
0000
;
