#TITLE:Horetaze HARAJUKU;
#SUBTITLE:;
#ARTIST:Alpha & Schadarapar;
#TITLETRANSLIT:;
#SUBTITLETRANSLIT:;
#ARTISTTRANSLIT:;
#CREDIT:Timer Rabbit;
#BANNER:jrap80s_bn.PNG;
#BACKGROUND:jrap80s_bg.PNG;
#LYRICSPATH:;
#CDTITLE:timerrabbit.png;
#MUSIC:jrap80.mp3;
#OFFSET:0.000;
#SAMPLESTART:35.294;
#SAMPLELENGTH:12.000;
#SELECTABLE:YES;
#BPMS:0.000=170.000;
#STOPS:;
#BGCHANGES:;

//---------------dance-single - ----------------
#NOTES:
     dance-single:
     :
     Easy:
     4:
     0.305,0.346,0.069,0.039,0.027: // measure 1
0000
0000
0000
0000
,  // measure 2
0000
0000
0000
0000
,  // measure 3
0000
0100
0000
0000
,  // measure 4
0000
0010
0000
0000
0000
0000
0000
0000
0000
0000
0000
0000
0000
0001
0000
0000
,  // measure 5
0000
1000
0000
0000
0000
0001
0000
0000
0000
0000
0000
0000
0000
0000
0000
0100
,  // measure 6
0000
0000
0000
0010
0000
0000
0000
0000
0000
0000
0000
0000
0000
0000
0000
0000
,  // measure 7
0000
1001
0000
0000
,  // measure 8
0000
1001
0000
0000
0000
0000
0000
0000
0000
0000
0000
0000
0000
0000
0000
0000
,  // measure 9
0110
0000
0100
0010
,  // measure 10
0100
0010
0100
0010
,  // measure 11
1000
0001
1000
0001
,  // measure 12
1000
0001
1000
0001
,  // measure 13
1000
0100
0010
0100
,  // measure 14
0010
0100
0010
0100
,  // measure 15
0010
0110
0000
0000
,  // measure 16
1001
0000
0000
0000
,  // measure 17
0110
0000
1000
1000
,  // measure 18
1000
0001
0001
0001
,  // measure 19
0000
1000
0000
0001
,  // measure 20
0000
0100
0000
0010
,  // measure 21
0010
0000
0001
0000
0000
1000
0000
0000
,  // measure 22
0100
0000
0010
0000
0000
0001
0000
0000
,  // measure 23
0100
0000
1000
0000
0000
0010
0000
0000
,  // measure 24
0001
0100
0001
0100
,  // measure 25
0000
1000
1000
1000
,  // measure 26
0000
0001
0001
0001
,  // measure 27
0000
0100
0010
0100
,  // measure 28
0010
0100
0010
0100
,  // measure 29
0010
0001
1000
0001
,  // measure 30
1000
0001
1000
0001
,  // measure 31
0000
1000
0100
0010
,  // measure 32
0001
0010
0200
0300
,  // measure 33
2000
0000
3000
0002
0000
0003
0000
0000
,  // measure 34
0001
1000
0001
1000
,  // measure 35
0001
0001
0001
0001
,  // measure 36
0000
0000
0000
0000
,  // measure 37
1000
1000
1000
1000
,  // measure 38
0000
0000
0000
0000
,  // measure 39
0100
0100
0100
0100
,  // measure 40
0000
0000
0000
0000
,  // measure 41
0000
0010
0010
0010
,  // measure 42
0000
0100
0100
0100
,  // measure 43
0000
1000
0000
0001
,  // measure 44
0000
1000
0000
0001
,  // measure 45
0000
0100
0010
0100
,  // measure 46
0000
0010
0100
0010
,  // measure 47
0000
0001
0001
0001
,  // measure 48
0001
1000
1000
1000
,  // measure 49
0000
0100
0010
0100
,  // measure 50
0010
0001
1000
0001
,  // measure 51
0000
1000
0100
0010
,  // measure 52
0001
0010
0100
0000
,  // measure 53
1001
0001
0010
0100
,  // measure 54
1000
0100
0010
0000
,  // measure 55
1001
0010
0100
1000
,  // measure 56
0100
0010
0001
0000
,  // measure 57
1001
0010
0001
0100
,  // measure 58
0010
0000
2000
0000
0000
0000
0000
0002
,  // measure 59
3003
1000
0000
0001
,  // measure 60
0000
1000
0000
0100
,  // measure 61
0000
0010
0000
0001
0000
0001
0000
0000
,  // measure 62
0100
0000
0000
1000
0000
0000
1000
0000
,  // measure 63
0100
0010
0001
0100
,  // measure 64
1000
0000
0000
0001
0000
0000
0100
0000
,  // measure 65
0010
0000
1000
0000
0000
0100
0000
0010
,  // measure 66
0000
0001
0000
0000
0001
0000
0010
0000
,  // measure 67
0100
1000
0001
1000
,  // measure 68
0001
1000
0001
1000
,  // measure 69
0001
0100
0010
0100
,  // measure 70
0010
0100
0010
0100
,  // measure 71
0010
1000
0010
0100
,  // measure 72
0001
0010
0100
1000
,  // measure 73
0001
0001
0100
0010
,  // measure 74
1000
0100
0010
0001
,  // measure 75
0000
1000
1000
1000
,  // measure 76
0000
0001
0001
0001
,  // measure 77
0000
0100
0100
0100
,  // measure 78
0000
0010
0010
0010
,  // measure 79
0000
0001
1000
0001
,  // measure 80
0000
0100
0010
0100
,  // measure 81
0000
1000
0100
0001
,  // measure 82
0000
0001
0010
1000
,  // measure 83
0000
1000
0001
0000
,  // measure 84
0100
0000
0010
0100
,  // measure 85
0010
0001
0000
1000
,  // measure 86
0000
0001
0010
0100
,  // measure 87
0000
1000
0001
1000
,  // measure 88
0000
0100
0010
0100
,  // measure 89
0000
0001
0000
1000
,  // measure 90
0000
0001
1000
0001
;

//---------------dance-single - ----------------
#NOTES:
     dance-single:
     :
     Medium:
     6:
     0.360,0.519,0.200,0.023,0.054:
0000
0000
0000
0000
,
0000
0000
0000
0000
,
0000
2000
0000
0000
0000
3001
0000
0000
0000
0000
0000
0000
0000
0000
0000
0002
,
0000
0000
0000
1003
0000
0000
0000
0000
0000
0000
0000
0000
0000
0000
0000
1000
,
0000
0001
0000
1000
0000
0001
0000
0000
0000
0000
0000
0000
0000
0000
0000
0010
,
0000
0100
0000
0010
0000
0000
0000
0000
0000
0000
0000
0000
0000
0000
0000
0000
,
0000
1001
0000
0000
,
0000
0110
0000
0000
0000
0000
0000
0000
0000
0000
0000
0000
0000
0000
0000
0000
,
1001
0000
0010
0100
,
0010
0100
0010
0000
,
0001
0010
0100
1000
,
0010
0000
0001
0000
0100
1000
0100
0000
,
0010
1000
0100
0010
,
0001
0100
1000
0100
,
0010
1001
0000
0000
,
0000
0110
0000
0000
0000
0000
0000
0000
0000
0000
0000
0000
0000
0000
0000
0000
,
0011
0000
0000
0000
0000
0000
0000
0000
1000
0000
0000
1000
0000
0000
0000
0000
,
1000
0000
0001
0000
1000
0000
0001
1000
,
0000
0001
0000
1000
,
0000
0000
0100
0010
0001
0000
0010
0000
,
0000
0000
0100
0000
0000
1000
0000
0000
,
0010
0000
0000
0100
0000
0000
0001
0000
,
0000
0010
0000
0010
0000
1000
0000
0100
,
0000
0001
0000
0010
0000
1000
0100
1000
,
0000
0000
0001
1000
0001
0000
1000
0000
,
0001
0001
0010
0100
,
0000
1000
0100
0001
,
0100
1000
0100
0001
,
0100
1000
0010
0001
,
0010
1000
0010
0001
,
0000
1000
0100
0010
,
0001
0000
0010
0000
0100
1000
0000
0000
,
0100
0010
0000
0001
1000
0000
0000
0100
,
0000
0010
0000
0100
0000
0010
0000
0000
,
0001
1000
0010
0001
,
0000
0000
1000
0001
1000
0000
0000
0000
,
1000
0001
0100
0010
,
0000
0000
0100
0010
0100
0000
0000
0000
,
0010
0001
0100
1000
,
0000
0000
1000
0100
0010
0000
0000
0000
,
0001
1000
0001
1000
,
0000
0100
0010
0100
,
0000
1010
0000
0101
,
0000
0011
0000
1100
,
0000
1000
0001
1000
,
0000
0100
0010
0100
,
0000
1000
0100
0010
,
0001
0010
0100
1000
,
0000
0000
1000
0000
0010
0100
0001
0000
,
0010
0100
1000
0001
,
0000
1100
0011
0101
,
1010
0000
1000
0000
0001
0000
0000
0001
,
1000
0101
1010
1100
,
0011
0000
0100
0000
0010
0000
0000
0010
,
0100
1100
0101
0011
,
1010
0000
0001
0000
0010
0000
0000
0100
,
1000
0011
1010
0101
,
1100
0000
1000
0001
2000
0000
0000
3001
,
0001
0000
1000
0000
0000
0001
0000
0000
,
1000
0000
0000
0100
0000
0000
0010
0000
,
0000
0001
0000
0100
0000
0010
0000
0000
,
1000
0000
0000
0100
0000
0000
0010
0000
,
0001
0100
0010
1000
,
0100
0001
0000
0010
,
1000
0000
0100
0000
0010
0001
0000
0100
,
1000
0000
0100
0000
0010
0000
0100
0010
,
0100
0001
0010
1000
,
0010
0001
0010
1000
,
0010
0001
0100
1000
,
0100
0001
0100
1000
,
0100
0010
0001
0010
,
1000
0000
0010
0000
0001
0000
0010
1000
,
0000
1000
0100
0010
,
0001
0010
0100
1000
,
0000
1000
1000
1000
,
0000
0001
0001
0001
,
0000
0100
0100
0100
,
0000
0010
0010
0010
,
0000
0001
0010
0001
,
0000
0100
1000
0100
,
0000
0100
0010
0100
,
0000
0001
1000
0001
,
0000
1000
0000
0001
,
0000
0100
0010
0100
,
0000
0100
0000
0010
,
0000
0001
1000
0001
,
0000
1000
0100
0010
,
0000
0001
0010
0100
,
0000
0000
1000
0010
0000
0000
0100
0001
,
0000
0001
1000
0001
;

//---------------dance-single - ----------------
#NOTES:
     dance-single:
     :
     Hard:
     7:
     0.523,0.553,0.478,0.046,0.073:
0000
0000
0000
0000
,
0000
0000
0000
0000
0000
0000
0000
0000
0000
0000
0000
0000
0000
0000
0000
0011
,
0000
0000
0000
1100
0000
0000
0000
0000
0000
0000
0000
0000
0000
0000
0000
1010
,
0000
0000
0000
0101
0000
0000
0000
0000
0000
0000
0000
0000
0000
0000
0000
0001
,
0000
1000
0000
0100
0000
0010
0000
0000
0000
0000
0000
0000
0000
0000
0000
1000
,
0000
0001
0000
1000
0000
0000
0000
0000
0000
0000
0000
0000
0000
0000
0000
0000
,
0000
1001
0000
0000
,
0000
0110
0000
0000
0000
0000
0000
0000
0000
0000
0000
0000
0000
0000
0000
0000
,
1001
0000
0000
0000
0001
0010
0001
0100
,
0010
1000
0010
0100
0001
0100
1000
0000
,
2001
0010
0001
0010
,
0001
0000
0010
0000
0001
0010
0001
0000
,
3010
0102
1000
0100
,
1000
0100
1000
0100
,
1003
1001
0000
0000
,
0000
0110
0000
0000
0000
0000
0000
0000
,
0011
0000
0000
0000
1000
0000
0100
1000
,
0000
0000
0010
0000
0000
0001
0000
0000
0010
0000
0000
0100
0000
0000
1000
0000
,
0000
0000
0001
0000
0000
1000
0000
0000
,
0100
0010
0000
0000
0001
1000
0000
0000
,
1100
0000
0011
0000
0000
0101
0000
0000
,
1010
0000
0001
1000
0000
0100
0010
0000
,
1001
0101
1000
1000
,
0100
0010
0000
0001
0010
0001
0010
0001
,
0000
0000
1000
1000
0000
1000
0000
1000
,
0000
0100
0010
0100
0010
0100
0010
0000
,
0000
0000
0010
1000
0010
1000
0010
1000
,
0010
1000
0010
1000
0010
1000
0010
1000
,
0010
0100
0001
0100
0001
0100
0001
0100
,
0001
0100
0001
0100
0001
0100
1001
0000
,
0000
0000
0010
1000
0001
0100
0010
1000
,
0001
0000
0000
0000
1000
0000
0000
0001
0000
0000
1000
0000
0000
0000
1000
0000
,
0001
0000
0100
0010
0000
0000
0001
1000
,
0100
0010
0001
0100
1000
1000
0000
0000
,
1001
0011
1100
0011
,
0000
0000
0001
0000
1000
0000
0001
0000
0000
0000
0100
0000
0000
0010
0000
0000
,
1001
0011
1100
1010
,
0000
0000
0000
0010
0000
0000
0100
0000
0000
0010
0000
0000
0100
0000
0000
0000
,
1001
1010
1100
0011
,
0000
0001
1000
0001
0000
0100
0010
0100
,
0000
1100
1100
1100
,
0000
0011
0011
0011
,
0000
0000
1000
0001
1000
0000
0001
1000
,
0001
0000
0100
0010
0100
0000
0010
0000
,
0000
0000
0001
0100
0001
0000
0100
0000
,
0000
0000
1000
0010
1000
0000
0010
0000
,
0000
0000
0000
0000
0001
0000
1000
0000
0000
0001
0000
0000
1000
0000
0000
0000
,
0001
1000
0100
0010
,
0000
0000
0100
0010
0100
0001
1000
0001
,
0010
0100
0010
1000
0001
1000
0100
0010
,
0000
1100
0011
0101
,
1010
0000
0001
1000
0001
0000
0001
1000
,
0000
0101
1010
1100
,
0011
0000
0100
0010
0000
0000
0010
0100
,
0010
0011
0110
1100
,
1001
0000
0001
0010
0000
0000
1000
0100
,
0000
1001
1100
0101
,
0110
0000
2000
0002
0000
0000
3003
1001
,
1001
0000
1000
0001
1000
0000
0011
0000
,
0000
0100
0000
1100
0000
0100
0000
0010
,
0001
0000
1001
0000
0000
1100
0000
0000
,
0011
0000
1001
0000
0001
1000
0000
0000
,
1001
1000
0100
0010
,
0001
0000
0010
0000
0000
0000
0100
1000
,
0000
0000
0100
0000
0010
0001
0010
0000
,
0100
1000
0000
1000
0100
0010
0001
0000
,
0001
0000
0001
0010
0001
0010
0001
0010
,
0001
0010
0001
0010
0001
0010
0002
0000
,
0000
1003
0100
1000
0100
1000
0100
1000
,
0100
1000
0100
1000
0100
1000
0200
0000
,
0000
0301
0010
0001
0010
0001
0010
0001
,
0010
0001
0010
0001
0010
0001
0000
0010
,
1000
0000
1000
0100
0010
0001
0010
0100
,
1000
0100
0010
0001
0010
0100
1000
0000
,
0000
0000
1000
0001
,
1000
0001
0001
1000
,
1000
0000
0100
0010
,
0100
0010
0010
0100
,
0100
0000
0000
0001
0000
0010
0000
1000
,
0000
0100
0000
0100
0000
0001
0000
0001
,
0000
1000
0001
1000
,
0001
0000
0010
0100
0010
0000
0100
0100
,
0000
0000
1000
0001
0010
0000
0000
0001
,
0100
0000
0000
0010
1000
0100
0010
0001
,
0000
0001
1000
0001
0000
0100
0010
0000
,
1000
0010
0100
0001
0010
0000
1000
0000
,
0000
0001
1000
0001
,
0000
1000
0010
1000
0010
0000
0001
0100
,
0001
0100
0000
0010
1000
0000
0000
0100
,
0001
0000
0001
1000
0001
1000
0001
0000
;
