#TITLE:Hardcore Frontiers;
#SUBTITLE:;
#ARTIST:Helblinde;
#TITLETRANSLIT:;
#SUBTITLETRANSLIT:;
#ARTISTTRANSLIT:;
#CREDIT:Timer Rabbit;
#BANNER:hardcorefrontiers_bn.PNG;
#BACKGROUND:hardcorefrontiers_bg.PNG;
#LYRICSPATH:;
#CDTITLE:timerrabbit.png;
#MUSIC:hardcorefrontiers.mp3;
#OFFSET:0.000;
#SAMPLESTART:85.000;
#SAMPLELENGTH:12.000;
#SELECTABLE:YES;
#BPMS:0.000=175.000;
#STOPS:;
#BGCHANGES:;

//---------------dance-single - ----------------
#NOTES:
     dance-single:
     :
     Challenge:
     8:
     0.568,0.886,0.423,0.164,0.028: // measure 1
0000
0000
0000
0000
,  // measure 2
0000
0000
0000
0000
,  // measure 3
0000
0000
0000
0000
,  // measure 4
0000
0000
0000
0000
,  // measure 5
0000
0000
0000
0000
,  // measure 6
0000
0000
0000
0000
,  // measure 7
0000
0000
0000
0000
,  // measure 8
0000
0000
0000
0000
,  // measure 9
0000
1000
0000
0100
,  // measure 10
0000
1000
0000
0100
,  // measure 11
0000
1000
0000
0100
,  // measure 12
0000
0001
0000
0100
,  // measure 13
0000
0001
0000
0100
,  // measure 14
0000
0001
0000
0100
,  // measure 15
0000
0001
0000
0100
,  // measure 16
0001
0100
0001
0100
0010
1000
0100
0000
,  // measure 17
1002
0100
1000
0100
,  // measure 18
1000
0100
1000
0103
,  // measure 19
2010
0001
0010
0001
,  // measure 20
0010
0001
0010
3001
,  // measure 21
0012
1000
0010
1000
,  // measure 22
0010
1000
0010
1003
,  // measure 23
2001
0100
0001
0100
,  // measure 24
0001
0100
0001
3100
,  // measure 25
0001
0000
0001
0100
0000
0010
1000
0010
,  // measure 26
1000
0000
1000
0100
0000
0010
0001
0010
,  // measure 27
0001
0000
0001
0100
0000
0010
1000
0010
,  // measure 28
1000
0100
0000
0100
0010
0100
0010
0100
,  // measure 29
1000
0000
1000
0100
0000
0001
1000
0001
,  // measure 30
1000
0000
0001
0100
0000
0010
1000
0100
,  // measure 31
0010
0000
0010
0001
0000
0010
1000
0100
,  // measure 32
0010
0001
0000
1000
0001
1000
0001
1000
,  // measure 33
0010
0000
0100
1000
0000
0010
0001
0100
,  // measure 34
1000
0000
0100
0010
0000
0010
1000
0100
,  // measure 35
0010
0000
0001
0100
0000
1000
0100
0010
,  // measure 36
0001
0100
0000
0001
0100
0001
0100
0001
,  // measure 37
0100
0000
0010
0100
0000
0010
0001
0100
,  // measure 38
1000
0000
0100
0010
0000
0001
1000
0100
,  // measure 39
0010
0000
0001
1000
0000
0010
0001
0100
,  // measure 40
0010
0100
0000
1000
0100
1000
0100
1000
,  // measure 41
0100
0000
0001
1000
0000
1000
0001
0100
,  // measure 42
1000
0000
0001
0010
0000
0010
0001
0100
,  // measure 43
1000
0000
0100
0001
0000
0010
1000
0001
,  // measure 44
1000
0100
0000
0001
0010
0100
0010
0001
,  // measure 45
1000
0000
1000
0100
0000
0010
0001
0100
,  // measure 46
0010
0000
0100
0001
0000
0010
1000
0100
,  // measure 47
0010
0000
0001
1000
0000
0100
0010
0001
,  // measure 48
1000
0100
0000
0010
0100
1000
0100
0020
,  // measure 49
0000
0000
0000
0000
,  // measure 50
0030
0000
0000
0000
,  // measure 51
0010
0000
0000
0000
0100
0000
0001
0100
,  // measure 52
0000
0000
0000
0000
1000
0000
0100
0010
,  // measure 53
0000
0000
0000
0000
0001
0000
1000
0100
,  // measure 54
0000
0000
0000
0000
0010
0100
0010
0100
,  // measure 55
0001
0000
0000
0000
0100
0000
1000
0100
,  // measure 56
0000
0000
0000
0000
0100
0000
0010
0001
,  // measure 57
0000
0000
0000
0000
0100
0000
0100
0010
,  // measure 58
0000
0000
0000
0000
0001
1000
0001
1000
,  // measure 59
0001
0000
0000
0000
,  // measure 60
0000
0000
0000
0000
,  // measure 61
0000
0000
0000
0000
,  // measure 62
0101
0101
0101
0101
,  // measure 63
1000
0001
1000
0001
,  // measure 64
1000
0000
0100
0001
0100
0001
0000
0000
,  // measure 65
0010
0000
1000
0100
1000
0010
0001
0010
,  // measure 66
0100
0010
0100
0020
0000
0000
0030
0000
,  // measure 67
1100
0101
1100
0101
,  // measure 68
0010
0100
0010
0100
,  // measure 69
0011
1100
0011
1100
,  // measure 70
1000
0001
1000
0001
,  // measure 71
1010
0101
1010
0101
,  // measure 72
0001
1000
0001
1000
,  // measure 73
0110
1001
0110
1001
,  // measure 74
0100
0010
0100
0010
,  // measure 75
1010
1010
1010
1010
,  // measure 76
0100
0100
0100
0100
,  // measure 77
0101
0101
0101
0101
,  // measure 78
0010
0010
0010
0010
,  // measure 79
1100
1100
1100
1100
,  // measure 80
0010
0010
0010
0010
,  // measure 81
0011
0011
0011
0011
,  // measure 82
0100
0100
0100
0100
,  // measure 83
1100
1001
0101
1001
,  // measure 84
1000
0000
0001
1000
0001
0100
0000
0000
,  // measure 85
1100
0000
0010
0001
0100
0010
1000
0100
,  // measure 86
0010
0001
0100
0001
0202
0000
0303
0000
,  // measure 87
0101
1001
1100
1001
,  // measure 88
0001
0000
1000
0010
0100
0001
0000
0000
,  // measure 89
0101
0000
0010
1000
0100
0010
0100
0001
,  // measure 90
0010
0100
1000
0100
2200
0000
3300
0000
,  // measure 91
1001
0101
1001
1100
,  // measure 92
1000
0100
1000
0100
0010
0001
0010
0001
,  // measure 93
0011
0110
1100
1001
,  // measure 94
0001
0010
0001
0010
0100
1000
0100
1000
,  // measure 95
1100
1001
0011
0110
,  // measure 96
0010
1000
0010
1000
0001
0100
0001
0100
,  // measure 97
0011
0110
1100
1001
,  // measure 98
0001
0100
0001
0100
0001
0010
1000
0100
,  // measure 99
0002
0003
0100
0000
0002
0003
0100
0000
0002
0003
0100
0000
0002
0003
0100
0000
,  // measure 100
1010
1100
0110
0011
,  // measure 101
2000
3000
0100
0000
2000
3000
0100
0000
2000
3000
0100
0000
2000
3000
0100
0000
,  // measure 102
0011
1001
1100
1001
,  // measure 103
0020
0030
0100
0000
0020
0030
0100
0000
0020
0030
0100
0000
0020
0030
0100
0000
,  // measure 104
0101
1001
1100
1001
,  // measure 105
2000
3000
0001
0200
0300
0010
2000
0000
,  // measure 106
3002
2003
3002
2003
,  // measure 107
3001
0000
0001
0000
0001
0000
0001
0000
0001
0000
0001
0000
0001
0000
0001
1000
,  // measure 108
0001
1000
0001
1000
0001
1000
0001
1000
0001
1000
0001
1000
0001
1000
0001
0000
,  // measure 109
0100
0000
0010
1000
0000
0010
0001
0010
,  // measure 110
0001
0000
0010
0100
0000
0010
1000
0010
,  // measure 111
1000
0000
1000
0100
0000
0010
1000
0100
,  // measure 112
0010
0001
0000
0100
0010
0100
0010
0100
,  // measure 113
0001
0000
0010
0100
0000
0010
1000
0100
,  // measure 114
0010
0000
0001
0100
0000
0010
1000
0001
,  // measure 115
0100
0000
0010
0001
0000
0010
0100
0010
,  // measure 116
1000
0100
0000
0001
1000
0001
1000
0001
,  // measure 117
1000
0000
0100
0001
0000
0010
1000
0100
,  // measure 118
0001
0000
0010
1000
0000
0100
0010
0001
,  // measure 119
0100
0000
0010
0100
0000
1000
0010
0001
,  // measure 120
0100
1000
0000
0001
0100
0001
0100
0001
,  // measure 121
1000
0000
0001
0010
0000
1000
0100
0010
,  // measure 122
0001
0000
0010
0100
0000
0010
0001
0100
,  // measure 123
0010
0000
0100
1000
0000
0010
0001
0100
,  // measure 124
0010
1000
0000
0001
0100
0001
0100
0001
,  // measure 125
1000
0000
0000
0000
0001
0000
0010
0100
,  // measure 126
0000
0000
0000
0000
1000
0000
0010
0100
,  // measure 127
0000
0000
0000
0000
0001
0000
0100
0010
,  // measure 128
0000
0000
0000
0000
0010
1000
0010
1000
,  // measure 129
0001
0000
0000
0000
0100
0000
0010
1000
,  // measure 130
0000
0000
0000
0000
0100
0000
0010
0001
,  // measure 131
0000
0000
0000
0000
0100
0000
0010
0100
,  // measure 132
0000
0000
0000
0000
0001
0100
0001
0100
,  // measure 133
1000
0001
1000
0001
1000
0001
1000
0001
,  // measure 134
1000
0100
0010
0100
0010
0001
1000
0001
,  // measure 135
1000
0001
0100
0010
0100
0010
1000
0001
,  // measure 136
1001
1001
1001
1001
,  // measure 137
1100
1001
0101
1001
,  // measure 138
1000
0000
0001
1000
0001
0100
0000
0000
,  // measure 139
1100
0000
0010
0001
0100
0010
1000
0100
,  // measure 140
0010
0001
0100
0001
0202
0000
0303
0000
,  // measure 141
0101
1001
1100
1001
,  // measure 142
0001
0000
1000
0010
0100
0001
0000
0000
,  // measure 143
0101
0000
0010
1000
0100
0010
0100
0001
,  // measure 144
0010
0100
1000
0100
2200
0000
3300
0000
,  // measure 145
0011
1001
1010
0110
,  // measure 146
0001
0000
0100
0010
0100
0001
0000
0000
,  // measure 147
0101
0000
1000
0100
0010
0001
0010
0100
,  // measure 148
1000
0100
0010
0001
0202
0000
0303
0000
,  // measure 149
1010
1001
0011
0110
,  // measure 150
1000
0000
0001
1000
0001
0100
0000
0000
,  // measure 151
1100
0000
0001
0010
0100
1000
0100
0010
,  // measure 152
0001
0010
0100
1000
2200
0000
3300
0000
,  // measure 153
0110
1001
0110
1001
,  // measure 154
0001
0000
0010
1000
0010
0100
0000
0000
,  // measure 155
0101
0000
0001
1000
0100
0010
0001
0010
,  // measure 156
1000
0100
0010
0100
0220
0000
0330
0000
,  // measure 157
0001
0100
0001
0100
0001
0100
0001
0100
,  // measure 158
2000
0000
0000
3000
0002
0000
0000
0003
,  // measure 159
1000
0100
1000
0100
1000
0100
1000
0100
,  // measure 160
2000
0000
0000
3000
0002
0000
0000
0003
,  // measure 161
1000
0000
1000
0100
0000
0001
1000
0001
,  // measure 162
1000
0000
0001
0100
0000
0010
1000
0100
,  // measure 163
0010
0000
0010
0001
0000
0010
1000
0100
,  // measure 164
0010
0001
0000
1000
0001
1000
0001
2000
,  // measure 165
0000
0000
0000
3000
,  // measure 166
0001
0000
1000
0100
0000
0010
0100
0010
,  // measure 167
0100
0010
0001
0100
0000
1000
0100
1000
,  // measure 168
0100
0000
0010
0001
0000
0100
0010
0100
,  // measure 169
0010
0000
0010
1000
0000
1000
0001
1000
,  // measure 170
0001
0000
1000
0100
1000
0100
0010
0001
,  // measure 171
0010
0001
0010
0100
0000
0100
0010
0100
,  // measure 172
0010
0000
0001
1000
0000
1000
0100
1000
,  // measure 173
0100
0000
0010
0001
0000
0001
0100
0001
,  // measure 174
0100
0000
0010
1000
0010
1000
0100
0001
,  // measure 175
0100
0001
1000
0000
1000
0000
1000
0000
,  // measure 176
1000
1000
1000
1000
,  // measure 177
0001
0001
0001
0001
,  // measure 178
0001
0001
0001
0001
,  // measure 179
0100
0100
0100
0100
,  // measure 180
0100
0100
0100
0100
,  // measure 181
0010
0010
0010
0010
,  // measure 182
0010
0010
0010
0010
,  // measure 183
0100
0100
0100
0100
,  // measure 184
0100
0100
0100
0100
,  // measure 185
0001
0001
0001
0001
,  // measure 186
0001
0001
0001
0001
,  // measure 187
1000
1000
1000
1000
,  // measure 188
1000
1000
1000
1000
,  // measure 189
1000
0100
0100
0100
,  // measure 190
0100
0100
0100
0100
,  // measure 191
0010
0010
0010
0010
,  // measure 192
0010
0010
0010
0010
,  // measure 193
0001
0100
0001
0100
,  // measure 194
0001
0100
0001
0100
,  // measure 195
0001
1000
0100
1000
,  // measure 196
0100
1000
0100
1000
,  // measure 197
0110
0110
0110
0110
,  // measure 198
1000
0001
1000
0001
1000
0001
1000
0001
1000
0001
1000
0001
1000
0001
1000
0001
,  // measure 199
1000
2002
0000
0000
0000
0000
0000
0000
,  // measure 200
0000
0000
0000
3003
0000
0000
0000
0000
;
