#TITLE:Greenhorn;
#SUBTITLE:;
#ARTIST:Lexy;
#TITLETRANSLIT:;
#SUBTITLETRANSLIT:;
#ARTISTTRANSLIT:;
#CREDIT:Timer Rabbit;
#BANNER:greenhorn_bn.PNG;
#BACKGROUND:greenhorn_bg.PNG;
#LYRICSPATH:;
#CDTITLE:timerrabbit.png;
#MUSIC:greenhorn.mp3;
#OFFSET:0.000;
#SAMPLESTART:55.046;
#SAMPLELENGTH:12.000;
#SELECTABLE:YES;
#BPMS:0.000=109.000;
#STOPS:;
#BGCHANGES:;

//---------------dance-single - ----------------
#NOTES:
     dance-single:
     :
     Easy:
     4:
     0.200,0.215,0.019,0.270,0.000:
0000
0000
0000
0000
,
0000
0000
2000
3000
0002
0003
2000
3000
,
0002
0003
0000
0000
0000
0000
0000
0000
,
0000
0100
0100
0100
,
1001
0000
1000
0000
,
1000
0000
0001
0000
,
0001
0000
0100
0000
,
0100
0000
0010
0000
,
0010
0000
0000
1000
0000
1000
0000
2000
,
3000
0000
0001
0000
0001
0000
0002
0003
,
0000
0100
0000
0100
,
0000
0100
0000
0000
,
0000
1000
0001
1000
,
0001
1000
0001
0100
,
0020
0030
1000
0000
,
1000
0000
1000
0000
,
1000
0000
0001
0000
,
0001
0000
0001
0000
,
0001
1000
0001
1000
,
0002
0003
0100
0100
,
0200
0000
0300
0000
0000
0020
0000
0000
,
0030
0000
0002
0003
2000
3000
0002
0003
,
0000
1000
0000
0001
,
0000
1000
0000
0100
,
0000
0010
0000
0100
,
0000
0100
0000
0100
0000
0100
0000
0100
,
0000
0100
0000
0000
0001
0000
0000
0000
,
0010
0000
0100
0000
,
0001
0000
1000
0000
,
0002
0000
0003
0000
,
0000
0000
0000
1000
0000
0001
0000
1000
,
0000
0001
0000
0000
0000
0100
0000
0010
,
0000
0100
0000
0000
0000
0001
0000
0010
,
0000
0001
0000
0000
0000
1000
0000
0100
,
0000
1000
0000
0100
0000
2000
3000
2000
,
0000
0000
3000
0000
0000
0002
0003
0002
,
0000
0003
0000
2000
0000
0000
3000
0000
,
0000
0200
0300
0200
0300
0200
0300
0100
,
0000
1000
0000
0100
0000
1000
0000
0010
,
0000
0000
0000
0001
0000
0100
0000
0001
,
0000
0000
0000
1000
0000
0010
0000
1000
,
0000
0000
0000
0001
0000
0100
0000
1000
,
0000
0010
0000
0002
0003
0002
0003
0001
,
0002
0003
0000
0000
0000
0010
0000
0010
,
0000
0010
0000
0000
0200
0000
0000
0300
,
0002
0003
2000
3000
0002
0003
0000
1000
,
0000
1001
0000
0000
0000
0000
0000
0000
;

//---------------dance-single - ----------------
#NOTES:
     dance-single:
     :
     Medium:
     5:
     0.242,0.301,0.130,0.317,0.000:
0000
0000
0000
0000
,
0000
1000
0100
0010
,
0001
0000
0000
0000
,
0000
0100
0100
0100
,
0110
0000
0001
0010
,
1000
0000
1000
0100
,
0001
0000
0010
0010
,
0010
0000
0000
0100
0000
0100
0000
0100
,
0000
1000
1000
2020
,
3030
0001
0001
0022
,
0033
1000
1000
1000
,
1000
0000
0001
0001
,
0001
0000
0000
0000
,
0000
0000
0000
0000
,
0220
0330
0100
0100
,
0100
0000
0010
0010
,
0010
0000
0001
0001
,
0001
0000
1000
1000
,
1000
0000
2000
3000
0002
0003
2000
0000
,
3000
0002
0000
0003
0010
0000
0010
0000
,
0020
0000
0000
0030
0000
0200
0000
0000
,
0300
0001
1000
0001
,
0000
1000
0000
1000
0000
1000
0000
1000
,
0000
2000
0000
3000
0001
0000
0001
0000
,
0002
0000
0003
0100
0000
0100
0000
0100
,
0010
0100
0000
0000
0000
0000
0000
0020
,
0030
0010
0010
0010
,
0020
0000
0030
0100
0000
0100
0000
0200
,
0000
0300
0000
0001
0000
0100
0000
1000
,
0000
1001
0000
0000
0000
0000
0000
0000
,
0000
0000
1000
0000
0010
0000
0001
0001
,
0002
0000
0003
0000
1000
1000
2000
0000
,
3000
0000
0000
0000
0100
0100
0200
0000
,
0300
0000
0010
0010
,
0020
0030
0002
0003
0200
0300
1000
2000
,
0000
3000
0000
0000
0000
1000
0000
0001
,
0000
1001
0000
0000
0000
0110
0000
0000
,
0000
0100
0000
0010
0000
0100
0000
1001
,
0000
0100
0000
0010
0000
0001
0002
0000
,
0003
0000
0000
0100
0010
2000
0000
3000
,
0000
0000
0000
0001
0100
0020
0000
0030
,
0000
0000
0010
0100
,
0110
0110
1001
2002
,
3003
0000
0000
0000
1000
1000
2000
0000
,
3000
0000
0000
0000
0001
0002
0000
0003
,
0002
0003
2000
3000
0002
0003
0000
1001
,
0000
1001
0000
0000
0000
0000
0000
0000
;

//---------------dance-single - ----------------
#NOTES:
     dance-single:
     :
     Hard:
     7:
     0.366,0.365,0.251,0.391,0.112: // measure 1
0000
0000
0000
0000
,  // measure 2
0000
0011
1100
0101
,  // measure 3
1010
0000
0000
0000
,  // measure 4
0000
0000
0001
1000
0001
1000
0001
0000
,  // measure 5
2000
0000
3000
0001
0100
0001
0100
0001
,  // measure 6
0100
0000
0000
1000
0010
1000
0010
0000
,  // measure 7
0000
0000
0000
1000
0100
1000
0100
1000
,  // measure 8
0100
0000
0000
0010
0001
0010
0001
0000
,  // measure 9
0000
0000
0001
1000
0001
1000
0001
0000
,  // measure 10
1100
0000
1000
0001
1000
0001
1000
0000
,  // measure 11
0011
0000
0000
0001
0100
1000
0010
0001
,  // measure 12
1000
0001
0000
0000
0110
0000
0110
0000
,  // measure 13
1001
0000
0000
0000
0000
0000
2000
3000
,  // measure 14
0200
0300
0020
0030
0002
0003
2000
3000
,  // measure 15
2002
0000
3003
0000
0000
0001
0010
0001
,  // measure 16
0200
0300
0000
0000
0000
1000
0100
1000
,  // measure 17
0020
0030
0000
0000
0000
1000
0001
0100
,  // measure 18
0020
0030
0000
0000
0000
0001
1000
0010
,  // measure 19
0200
0300
0020
0030
2000
3000
0200
0300
,  // measure 20
0001
0202
0000
0303
0000
1000
0010
1000
,  // measure 21
0100
0002
0000
0003
0000
2200
0000
3300
,  // measure 22
0000
0101
0000
0011
0000
0101
0000
0000
,  // measure 23
0000
0000
1000
0100
0000
0000
1000
0100
0000
0000
1000
0100
0000
0000
1000
0100
,  // measure 24
0000
0000
1000
0100
0000
0000
0100
0001
0000
0000
0100
0001
0000
0000
0100
0001
,  // measure 25
0000
0000
0100
0001
0000
0000
0001
0010
0000
0000
0001
0010
0000
0000
0001
0010
,  // measure 26
0000
0000
0001
0010
0000
0000
0000
0000
0000
0000
0000
0000
0000
0000
0000
0000
,  // measure 27
0000
0000
1001
0000
0000
0000
0010
1000
0000
0000
0010
1000
0000
0000
0010
1000
,  // measure 28
0000
0000
0010
1000
0000
0000
0100
0001
0000
0000
0100
0001
0000
0000
0100
0001
,  // measure 29
0000
0000
0100
0001
0000
0000
1000
0001
0000
0000
0001
1000
0000
0000
1000
0001
,  // measure 30
0000
0000
0000
0000
,  // measure 31
0000
0000
0000
1000
0100
1000
0100
2000
,  // measure 32
0000
3000
0000
0001
0100
0001
0100
0002
,  // measure 33
0000
0003
0000
0010
0001
0010
0001
0020
,  // measure 34
0000
0030
0000
1000
0010
1000
0010
2000
,  // measure 35
3000
0200
0300
0020
0030
0002
0003
1000
,  // measure 36
2002
0000
3003
0000
0000
0001
1000
0100
,  // measure 37
0010
0002
0000
0003
2000
0000
3000
0000
,  // measure 38
0000
1001
0000
0110
0000
1001
0000
2002
,  // measure 39
3003
0000
0000
0010
1000
0010
0002
0000
,  // measure 40
0003
0000
0000
0100
0001
0010
2000
0000
,  // measure 41
3000
0000
0000
0100
0010
0100
0020
0000
,  // measure 42
0030
0000
0000
0001
1000
0001
1000
0002
,  // measure 43
0003
2000
3000
0002
0003
2000
3000
0010
,  // measure 44
0220
0000
0330
0000
0001
1000
0001
1000
,  // measure 45
0001
0000
0000
0000
0100
0010
0000
0000
,  // measure 46
0110
0000
0110
0000
0110
0000
0000
1001
,  // measure 47
0000
0110
0000
0000
0000
0000
0000
0000
;
