#TITLE:Get Wild;
#SUBTITLE:;
#ARTIST:NMR;
#TITLETRANSLIT:;
#SUBTITLETRANSLIT:;
#ARTISTTRANSLIT:;
#CREDIT:Timer Rabbit;
#BANNER:Get Wild-bn.png;
#BACKGROUND:Get Wild-bg.png;
#LYRICSPATH:;
#CDTITLE:timerrabbit.png;
#MUSIC:Get Wild.mp3;
#OFFSET:0.000;
#SAMPLESTART:89.000;
#SAMPLELENGTH:12.000;
#SELECTABLE:YES;
#BPMS:0.000=150.000;
#STOPS:;
#BGCHANGES:3.250=trance8=1.000=0=0=1,
19.250=Vortex.avi=1.000=0=0=1,
27.250=Blocks.avi=1.000=0=0=1,
35.250=Green Geometry.avi=1.000=0=0=1,
43.250=cube_a.avi=1.000=0=0=1,
51.250=popup2=1.000=0=0=1,
55.250=blueball.avi=1.000=0=0=1,
87.250=snow.avi=1.000=0=0=1,
103.250=Hearts.avi=1.000=0=0=1,
119.250=Blocks.avi=1.000=0=0=1,
126.750=Get Wild-bg.png=1.000=0=0=1,
127.250=popup2=1.000=0=0=1,
128.250=Get Wild-bg.png=1.000=0=0=1,
129.250=trance8=1.000=0=0=1,
130.750=cube_a.avi=1.000=0=0=1,
134.750=Blocks.avi=1.000=0=0=1,
142.750=popup2=1.000=0=0=1,
143.250=Get Wild-bg.png=1.000=0=0=1,
144.250=trance8=1.000=0=0=1,
145.250=Get Wild-bg.png=1.000=0=0=1,
146.750=Vortex.avi=1.000=0=0=1,
150.750=Blue Bars.avi=1.000=0=0=1,
158.750=Get Wild-bg.png=1.000=0=0=1,
159.250=trance8=1.000=0=0=1,
160.250=Get Wild-bg.png=1.000=0=0=1,
161.250=popup2=1.000=0=0=1,
162.750=snow.avi=1.000=0=0=1,
174.750=trance8=1.000=0=0=1,
175.250=Get Wild-bg.png=1.000=0=0=1,
176.250=popup2=1.000=0=0=1,
177.250=Get Wild-bg.png=1.000=0=0=1,
178.750=Fireworks.avi=1.000=0=0=1,
182.750=Blocks.avi=1.000=0=0=1,
190.250=trance8=1.000=0=0=1,
191.250=blueball.avi=1.000=0=0=1,
199.250=Vortex.avi=1.000=0=0=1,
207.250=cube_a.avi=1.000=0=0=1,
215.250=Blue Bars.avi=1.000=0=0=1,
222.750=Get Wild-bg.png=1.000=0=0=1,
223.250=trance8=1.000=0=0=1,
224.250=Get Wild-bg.png=1.000=0=0=1,
225.250=popup2=1.000=0=0=1,
226.750=Blocks.avi=1.000=0=0=1,
230.750=Hearts.avi=1.000=0=0=1,
238.750=Get Wild-bg.png=1.000=0=0=1,
239.250=popup2=1.000=0=0=1,
240.250=Get Wild-bg.png=1.000=0=0=1,
241.250=trance8=1.000=0=0=1,
242.750=Blocks.avi=1.000=0=0=1,
246.750=blueball.avi=1.000=0=0=1,
254.750=trance8=1.000=0=0=1,
255.250=Get Wild-bg.png=1.000=0=0=1,
256.250=popup2=1.000=0=0=1,
257.250=Get Wild-bg.png=1.000=0=0=1,
258.750=snow.avi=1.000=0=0=1,
262.750=Vortex.avi=1.000=0=0=1,
270.750=Get Wild-bg.png=1.000=0=0=1,
271.250=popup2=1.000=0=0=1,
272.250=Get Wild-bg.png=1.000=0=0=1,
273.250=trance8=1.000=0=0=1,
274.750=Blocks.avi=1.000=0=0=1,
279.250=cube_a.avi=1.000=0=0=1,
281.250=Blue Bars.avi=1.000=0=0=1,
283.250=Get Wild-bg.png=1.000=0=0=1,
284.000=trance8=1.000=0=0=1,
284.750=Get Wild-bg.png=1.000=0=0=1,
285.250=popup2=1.000=0=0=1,
286.250=Get Wild-bg.png=1.000=0=0=1,
99999=-nosongbg-=1.000=0=0=0 // don't automatically add -songbackground-
;

//---------------dance-single - ----------------
#NOTES:
     dance-single:
     :
     Hard:
     7:
     0.472,0.490,0.390,0.110,0.025:
0000
0000
0000
0000
,
0000
0000
0000
0000
,
0000
0000
0000
0000
,
0000
0000
0000
0000
,
0000
0000
0000
0000
0000
0000
1000
0010
,
0100
0000
0100
0010
0001
0000
0001
0010
,
0001
0100
1000
0000
0010
0000
0010
0100
,
0001
0000
1000
0100
1000
0000
0010
0100
,
1000
0100
0001
0000
0001
0000
1000
0010
,
1000
0000
0001
0100
0001
0000
0100
0010
,
0100
0010
0100
0000
0010
0000
0001
0010
,
0001
0000
0100
1000
0100
0000
0001
1000
,
0001
1000
0001
0000
1000
0000
0011
0000
,
0101
0000
0001
1000
0010
0100
0010
0001
,
0000
0001
0000
0001
0000
0001
0000
0001
,
1000
0010
0100
0100
0000
1000
0100
1000
,
0000
0010
0001
0100
0010
1000
2000
0000
,
3000
0100
0000
0100
0000
0100
0000
1000
,
0000
0000
1000
0000
0000
0000
1000
0000
0000
0000
1000
0000
0000
0100
0000
0000
,
0001
0000
0000
0010
0000
0010
0000
0000
0000
0000
1000
0000
0001
0000
1000
0000
,
0000
0100
0010
0100
0000
0010
1001
0000
,
1001
1001
1001
0012
,
0013
2100
3100
0001
,
0010
1000
0100
0000
0000
0000
1100
0000
,
1100
0000
0000
0000
1100
0000
0000
0000
1100
0000
0000
0000
0010
0000
0000
0001
,
0000
0010
0010
0000
0000
0000
2010
0000
,
3010
0000
0000
0000
0102
0000
0000
0000
0103
0000
0000
0000
0001
0000
0000
1000
,
0000
0000
0001
0000
1000
0000
0000
0000
0000
0000
1000
0100
0000
0000
0000
0000
,
0001
0000
0001
1010
,
1100
0011
0101
2002
,
3003
0220
0330
0022
,
0000
0000
0033
1010
,
1100
0000
0101
0000
0000
1000
0000
0010
,
0100
0001
0010
0000
0000
1000
0010
1000
,
0000
0100
0001
0100
0000
0001
0100
0010
,
1000
1000
0000
0011
,
1100
0000
1010
0000
0000
1000
0000
0001
,
0010
1000
0100
0000
0000
1000
0010
0100
,
0000
0010
0100
0001
0000
0100
0010
1000
,
0001
0100
0000
0001
,
1000
0001
0000
1100
,
1100
0000
0011
0000
0000
0010
1000
0100
,
0000
0010
0001
0100
0000
0001
1000
0001
,
1000
0010
0100
0010
0000
0000
0100
0000
,
0010
0100
0000
0011
,
0011
0000
1100
0000
0000
0001
0100
0010
,
0000
1000
0010
0100
0000
0010
0100
0010
,
0100
0001
1000
0001
0000
0000
1000
0100
,
0001
0000
0001
0010
0100
0000
1000
0100
,
1000
0010
0001
0000
0100
0000
0001
0010
,
1000
0000
0100
0001
0100
0000
0010
0001
,
0100
1000
0001
0000
0010
0000
0100
0001
,
0100
0000
1000
0010
1000
0000
0001
0010
,
0001
0010
0001
0000
0010
0000
1000
0100
,
1000
0000
0001
0010
0001
0000
1000
0010
,
1000
0010
1000
0000
0010
0000
0011
0000
,
1010
0000
0101
0000
0000
0001
0000
1000
,
0100
0010
0001
0000
0000
0001
0100
1000
,
0000
0001
0010
1000
0000
1000
0010
0001
,
0100
1000
0000
0101
,
1010
0000
0101
0000
0000
0001
0000
1000
,
0010
0100
0001
0000
0000
0100
0010
0100
,
0000
0001
1000
0001
0000
0010
1000
0010
,
0001
0100
0000
1000
,
0010
1000
0000
0011
,
0011
0000
1100
0000
0000
0100
0001
1000
,
0000
1000
0010
0001
0000
1000
0100
1000
,
0100
0010
0001
0010
0000
0000
0010
0000
,
1000
0010
0000
1010
,
1010
0000
0101
0000
0000
0010
0100
1000
,
0000
0010
0100
0001
0000
1000
0010
1000
,
0010
0100
0001
0100
2002
0000
0000
0000
,
0000
3003
0000
0000
;

//---------------dance-single - ----------------
#NOTES:
     dance-single:
     :
     Medium:
     6:
     0.352,0.398,0.186,0.136,0.004:
0000
0000
0000
0000
,
0000
0000
0000
0000
,
0000
0000
0000
0000
,
0000
0000
0000
0000
,
0000
0000
0000
0100
,
0100
0000
0100
0010
0100
0000
0001
0000
,
0001
0000
0001
1000
0001
0000
0010
0000
,
0010
0000
1000
0010
1000
0000
1000
0000
,
1000
0000
0100
1000
0100
0000
0100
0000
,
0100
0000
0010
0100
0001
0000
0001
0000
,
0001
0000
0001
0010
0100
0000
0010
0000
,
0010
0000
0010
0100
1000
0000
1000
0000
,
1000
0000
0000
0000
0100
0000
0010
0000
0001
0000
0000
0000
0001
0000
0000
1000
,
0000
0001
0000
0100
0010
0100
0010
1000
,
0000
0100
0000
1000
0000
0100
0000
1000
,
0000
1000
0000
2000
0000
3000
0001
0000
,
0000
0000
0010
0100
0000
0100
0000
0200
,
0000
0300
0000
0100
0000
0100
0000
0001
,
0000
0001
0000
0001
0000
0001
0000
0010
,
0000
0100
0000
0100
0000
0000
1010
0000
,
0000
0101
0000
1001
,
1001
1001
1001
0002
,
0003
2000
0000
3000
0000
0100
0000
0010
,
0000
0100
0000
0000
0000
1100
0000
1100
,
0000
1100
0000
1100
0000
0011
0000
0101
,
0000
1001
0000
0110
0000
0000
0000
0200
,
0000
0300
0020
0000
0030
0000
0011
0000
,
1100
0011
0000
2002
,
0000
3003
0000
1000
,
0001
0010
0100
2002
,
0000
3003
0220
0000
0000
0330
2002
0000
,
0000
0000
0000
3003
0000
0000
0001
0000
,
0010
0100
0000
1000
,
0100
0000
0010
0000
0000
0000
1000
0100
,
1000
0010
0010
0001
,
0001
0100
0000
1000
,
0010
0001
0000
0001
,
0010
0000
1000
0000
0000
0000
0001
0010
,
0001
0100
0100
1000
,
1000
0010
0000
0001
,
1000
0001
0000
0010
,
0100
0000
0010
0000
0000
0000
0001
0010
,
0100
1000
1000
0100
,
0100
0100
0000
0010
,
0100
0000
0010
0000
0000
0000
1000
0100
,
0010
0001
0000
0010
,
0010
0100
0100
1000
,
0100
0001
0000
0001
,
0001
0000
0001
0010
0001
0000
0010
0000
,
0010
0000
0010
0001
0100
0000
1000
0000
,
1000
0000
0100
0010
1000
0000
0100
0000
,
0100
0000
0010
1000
0010
0000
0001
0000
,
0001
0000
1000
0010
0100
0000
1000
0000
,
1000
0000
0100
0001
0010
0000
0100
0000
,
0100
0000
0100
0010
0001
0000
0010
0000
,
0010
0000
0010
0100
1000
0000
1000
0000
,
0100
0010
0000
0001
,
0010
0000
0100
0000
0000
0000
0001
0010
,
0001
0100
0100
1000
,
1000
0010
0000
0001
,
0100
1000
0000
1000
,
0100
0000
0010
0000
0000
0000
1000
0100
,
1000
0010
0010
0001
,
0001
0100
0000
0100
,
0010
0100
0000
1000
,
0001
0000
1000
0000
0000
0000
1000
0100
,
0010
0001
0001
0010
,
0010
0010
0000
1000
,
0100
0000
0001
0000
0000
0000
0001
0010
,
1000
0010
0000
0100
,
0100
0010
0010
0001
,
0010
1000
2002
0000
,
0000
3003
0000
0000
;

//---------------dance-single - ----------------
#NOTES:
     dance-single:
     :
     Easy:
     4:
     0.288,0.337,0.110,0.068,0.000: // measure 1
0000
0000
0000
0000
,  // measure 2
0000
0000
0000
0000
,  // measure 3
0000
0000
0000
0000
,  // measure 4
0000
0000
0000
0000
,  // measure 5
0000
0000
0000
0100
,  // measure 6
0001
0100
0001
0010
,  // measure 7
1000
0010
1000
0100
,  // measure 8
1000
0100
1000
0010
,  // measure 9
0001
0010
0001
0100
,  // measure 10
0010
0100
0010
0001
,  // measure 11
1000
0001
1000
0100
,  // measure 12
0001
0100
0001
0010
,  // measure 13
1000
0000
0010
0000
1000
0000
0000
1001
,  // measure 14
0000
0000
0110
0001
,  // measure 15
0000
0100
0000
1000
,  // measure 16
0010
1000
0000
1000
,  // measure 17
0000
0100
0010
0001
,  // measure 18
0000
0000
0000
0001
,  // measure 19
0000
0010
0000
0010
,  // measure 20
1000
0100
0000
1001
,  // measure 21
0000
0110
0000
1001
,  // measure 22
1001
1001
1001
0001
,  // measure 23
0000
1000
0000
0100
,  // measure 24
0010
0100
0000
0001
,  // measure 25
0100
1000
0010
0101
,  // measure 26
1001
1100
0000
0001
,  // measure 27
0000
0010
0000
1000
,  // measure 28
0010
0100
0000
2002
,  // measure 29
0000
3003
0000
0001
,  // measure 30
0100
0010
1000
0002
,  // measure 31
0000
0003
2000
0000
0000
0000
3200
0000
,  // measure 32
0000
0300
0020
0000
0000
0030
0001
0000
,  // measure 33
0100
1000
0000
1000
,  // measure 34
0100
0001
0000
0010
,  // measure 35
0100
1000
0100
0010
,  // measure 36
0001
0001
0000
1000
,  // measure 37
0010
0001
0000
0001
,  // measure 38
0010
1000
0000
0010
,  // measure 39
0001
0100
0010
1000
,  // measure 40
0100
0100
0000
1000
,  // measure 41
0001
0010
0000
0001
,  // measure 42
1000
0100
0000
0001
,  // measure 43
0010
0100
1000
0100
,  // measure 44
0010
0001
0000
0001
,  // measure 45
0010
0100
0000
1000
,  // measure 46
0010
0100
0000
0001
,  // measure 47
0010
0100
1000
0100
,  // measure 48
0010
0001
0000
0100
,  // measure 49
0001
0100
0001
0010
,  // measure 50
1000
0010
1000
0100
,  // measure 51
1000
0100
1000
0010
,  // measure 52
0001
0010
0001
0100
,  // measure 53
0010
0100
0010
0001
,  // measure 54
1000
0001
1000
0100
,  // measure 55
0001
0100
0001
0010
,  // measure 56
1000
0010
1000
1000
,  // measure 57
0010
0001
0000
0001
,  // measure 58
0010
1000
0000
0010
,  // measure 59
0100
1000
0100
0010
,  // measure 60
0001
0001
0000
0001
,  // measure 61
0100
1000
0000
1000
,  // measure 62
0100
0001
0000
0010
,  // measure 63
0001
0100
0010
1000
,  // measure 64
0100
0100
0000
1000
,  // measure 65
0100
0010
0000
1000
,  // measure 66
0010
0001
0000
0001
,  // measure 67
0010
0100
1000
0100
,  // measure 68
0010
0001
0000
1000
,  // measure 69
0100
0010
0000
0001
,  // measure 70
0100
1000
0000
0001
,  // measure 71
0010
0100
1000
0100
,  // measure 72
0010
0001
2002
0000
,  // measure 73
0000
3003
0000
0000
;
