#TITLE:Everyday Lovelyday;
#SUBTITLE:(L.E.D. Style Mix V2);
#ARTIST:Togo-chef feat. Sana;
#TITLETRANSLIT:;
#SUBTITLETRANSLIT:;
#ARTISTTRANSLIT:;
#CREDIT:Timer Rabbit;
#BANNER:everyday_LED_bn.PNG;
#BACKGROUND:everyday_LED_bg.PNG;
#LYRICSPATH:;
#CDTITLE:timerrabbit.PNG;
#MUSIC:everydaylovelyday_LEDstylemix.mp3;
#OFFSET:0.000;
#SAMPLESTART:68.436;
#SAMPLELENGTH:23.240;
#SELECTABLE:YES;
#BPMS:0.000=134.001,121.000=74.001,129.500=84.001,132.000=94.001,135.000=104.001,139.750=85.001,140.000=54.001,140.250=34.001,140.500=14.001,140.750=4.001,140.750=4.001,140.750=134.001;
#STOPS:140.750=0.200
;
#BGCHANGES:;

//---------------dance-single - ----------------
#NOTES:
     dance-single:
     :
     Hard:
     7:
     0.420,0.384,0.274,0.189,0.039:
0000
0000
0000
0000
,
0000
0000
1000
0010
1000
0000
0001
0100
,
0001
1100
1100
0011
,
0011
0000
0001
0010
0001
0000
0100
1000
,
0100
1010
1010
0101
,
0101
0000
1000
0010
0100
0000
0001
0010
,
0100
0110
0110
0110
,
0110
0000
0001
0100
0010
0000
1000
0100
,
0010
1001
1001
1001
,
1001
0000
0010
0100
1000
0000
0010
0100
,
0001
0000
0010
1000
0010
0100
0001
0100
,
0001
0000
0100
0010
0001
0000
0100
0010
,
1000
0000
0001
0010
0001
0100
1000
0100
,
1000
1001
1000
1000
,
0001
0010
0100
0000
1000
0100
0000
0000
,
0010
0001
0200
0000
0300
0000
0000
0010
,
1000
0010
0000
0010
0000
0010
0000
0001
,
0100
0020
0000
0030
0000
0000
0000
1000
,
0100
1000
0000
0001
0100
0010
0000
1000
,
0001
0100
0010
0200
0000
0300
0000
0010
,
0000
1000
0100
0001
0010
0000
0000
0000
,
1000
0000
0001
1000
0001
0000
0010
0100
,
0000
1001
0001
0001
,
1000
0010
0100
0000
0001
0010
0000
0000
,
0010
1000
0200
0000
0300
0000
0000
0001
,
0010
1000
0000
0100
0000
0001
0000
0010
,
0100
0002
0000
0003
0000
0000
0000
1000
,
0010
1000
0000
0001
0010
0001
0000
1000
,
0001
0100
0010
0010
0000
0000
0000
0001
,
0010
0001
0100
1000
0100
0010
0100
0000
,
0000
0000
0000
0000
0000
0000
0000
0000
0000
1000
0000
0000
0100
0000
0020
0000
0030
0001
0000
0000
0000
0000
0000
0000
,
0010
0000
0000
0000
0000
0000
0100
0000
0000
0000
2000
0000
0000
0000
3000
0000
0010
0000
0000
0000
0000
0000
0000
0000
0001
0000
0000
0000
0100
0000
0000
0000
0000
0002
0000
0000
0003
0000
0000
0000
0000
0000
0001
0000
0000
0000
0000
0000
,
0000
0000
0000
0000
0000
0000
1000
0000
0000
0001
0000
0000
1000
0000
0000
0000
,
0100
0000
0000
0010
0000
0000
0100
0000
0000
0000
0000
0000
1001
0000
0000
0000
,
0000
0000
1001
0000
0000
0000
0000
0000
0100
0000
0000
0000
0010
0000
0000
0200
,
0000
0000
0000
0300
0000
0000
0001
0000
0010
0000
0001
0000
1000
0000
0100
0000
,
1000
0010
0000
1000
0100
1000
0001
0010
,
0001
0100
0000
1000
0001
2000
0000
3000
,
0010
0001
0100
0020
0000
0030
0000
0000
,
1000
0001
1000
0000
0001
0100
0010
0001
,
0010
0000
1000
0000
1000
0010
0100
1000
,
0010
0000
0010
0100
0000
0000
0000
0000
,
1000
0001
1000
0000
0100
0010
0000
0001
,
0000
1000
0000
0100
0010
0001
0010
0100
,
1000
1000
0000
1000
0010
0100
0010
0100
,
0001
1000
0000
0001
0100
0020
0000
0030
,
0100
1000
0001
0020
0000
0030
0000
0000
,
0100
0010
0100
0000
0002
0000
0000
0023
,
0000
0230
2300
3200
,
0310
0001
0000
0000
0010
0000
0100
0000
,
1000
0100
0000
0000
0010
0000
0001
0000
,
0100
0020
0000
2030
0000
0000
0001
0000
,
0001
0001
0001
0001
,
0001
0000
3001
0000
0010
0001
0010
0000
,
1000
0100
1000
0000
0101
0000
0101
0000
,
1010
0000
1010
0000
1000
0010
1000
0000
,
0100
0001
0100
0000
1100
0000
1100
0000
,
0011
0000
0011
0000
0001
1000
0001
0000
,
0100
0010
0100
0000
0110
0000
0110
0000
,
1001
2002
0000
3003
;

//---------------dance-single - ----------------
#NOTES:
     dance-single:
     :
     Medium:
     5:
     0.338,0.384,0.240,0.154,0.009:
0000
0000
0000
0000
,
0000
0010
0010
0100
,
0100
0101
0101
1010
,
1010
0001
0001
1000
,
1000
1010
1010
0101
,
0101
0010
0010
0100
,
0100
0110
0110
0110
,
0110
0100
0100
0010
,
0010
1001
1001
1001
,
1001
1000
0001
0001
,
1000
0000
0100
0000
0010
0000
0100
0010
,
0100
0001
1000
1000
,
0001
0000
1000
0000
0001
0000
1000
0001
,
1000
0001
0010
0010
,
1000
0100
0010
0010
,
0001
0010
0002
0000
0003
0000
1000
0000
,
0100
1000
0100
0001
,
0020
0000
0030
0000
0000
0000
0000
0100
,
0100
0100
0000
0001
0000
0001
0000
0000
,
1000
0000
1000
1000
1000
0000
0000
0100
,
0000
0001
0001
0001
0000
0000
0000
0000
,
1000
0001
1000
0001
,
0000
1000
0100
0100
,
0001
0010
1000
1000
,
0100
0001
0020
0000
0030
0000
0010
0000
,
0001
0100
0010
1000
,
0200
0000
0300
0000
0000
0000
0000
1000
,
1000
1000
0000
0010
0000
0010
0000
0000
,
0100
0000
0100
0100
0100
0000
0000
1000
,
0000
0001
0000
0100
0010
0100
0000
0000
,
0000
0000
0000
1000
0010
0002
0003
0000
,
0010
0100
2000
3000
0000
0100
0001
0020
,
0030
1000
0001
2000
0000
3200
0320
0030
,
0002
0000
0003
2000
0000
3000
0002
0000
0003
0000
0000
0000
0010
0000
0000
0000
,
0000
0000
0100
0000
0000
0000
0000
0000
1000
0000
0000
0000
0001
0000
0000
2000
,
0000
0000
0000
3000
0000
0000
1000
0000
0000
0000
0010
0000
0000
0000
0100
0000
,
0001
0000
0000
0001
0000
0010
0000
0100
,
1000
0000
0000
1000
0000
0001
1000
0000
,
0100
0010
0100
0000
0000
0000
0000
0000
,
0100
0010
0100
0000
1000
0000
0000
0001
,
0000
0010
0000
0000
0100
0000
0000
1000
,
0000
0000
0010
0001
0000
0000
0000
0000
,
0100
0010
0100
0000
1000
0100
0000
0010
,
0000
0100
0000
0001
0000
0100
0000
0010
,
1000
0000
0000
0010
0000
0100
0000
0001
,
0010
0000
0000
0010
0000
0100
0001
0000
,
0010
1000
0100
0000
0000
0000
0000
0000
,
0001
1000
0001
0000
1000
0000
0000
0010
,
0000
0001
0100
0010
,
1000
0100
0000
0000
1000
0000
0001
0000
,
0100
0010
0000
0000
1000
0000
0100
0000
,
0010
0001
2000
0000
3002
0000
0000
0000
,
0000
0000
0000
0000
,
0003
0000
0000
0000
1000
0010
1000
0000
,
0001
0100
0001
0000
1001
0000
1001
0000
,
1001
0000
1001
0000
1000
0010
1000
0000
,
0001
0100
0001
0000
0110
0000
0110
0000
,
0110
0000
0110
0000
0100
0010
0100
0000
,
0001
1000
0001
0000
0110
0000
0110
0000
,
1001
2002
0000
3003
;

//---------------dance-single - ----------------
#NOTES:
     dance-single:
     :
     Easy:
     4:
     0.242,0.257,0.000,0.146,0.009: // measure 1
0000
0000
0000
0000
,  // measure 2
0000
1000
0100
1000
,  // measure 3
0100
0010
0010
0010
,  // measure 4
0010
0001
0010
0001
,  // measure 5
0010
0100
0100
0100
,  // measure 6
0100
1000
0100
1000
,  // measure 7
0100
0001
0001
0001
,  // measure 8
0001
0001
0010
0001
,  // measure 9
0010
1000
1000
1000
,  // measure 10
1000
0010
0100
1000
,  // measure 11
0010
0001
0100
1000
,  // measure 12
0010
0100
0001
0010
,  // measure 13
1000
0100
0001
0010
,  // measure 14
1000
0200
0300
0000
,  // measure 15
0001
0100
0020
0030
,  // measure 16
1000
0100
0000
2000
,  // measure 17
3001
0100
0010
0001
,  // measure 18
0002
0000
0003
0000
0000
0000
0000
1000
,  // measure 19
0000
0010
0000
0100
0000
0001
0000
0001
,  // measure 20
0000
0100
1000
0000
,  // measure 21
0100
0002
0000
0003
,  // measure 22
0000
0000
0000
0000
,  // measure 23
0000
0020
0030
0000
,  // measure 24
1000
0010
0200
0300
,  // measure 25
0001
0010
0000
2000
,  // measure 26
3100
0001
0010
0100
,  // measure 27
2000
0000
3000
0000
0000
0000
0000
0001
,  // measure 28
0000
0100
0000
0010
0000
1000
0000
1000
,  // measure 29
0000
0010
0001
0000
,  // measure 30
1000
0100
0010
0001
,  // measure 31
0000
0000
0000
1000
0000
1000
0000
0001
,  // measure 32
0000
0001
0000
0000
0100
0000
0100
0000
,  // measure 33
0010
0000
0010
1000
0000
0010
0001
0000
,  // measure 34
0010
0000
0000
0100
0000
0000
0010
0000
0000
0000
0000
0000
2000
0000
0000
0000
,  // measure 35
3000
0000
0002
0000
0000
0000
0000
0000
0003
0000
0200
0000
0000
0300
0000
0020
,  // measure 36
0000
0000
0000
0030
0000
0000
0001
0000
0000
0000
0000
0000
1000
0000
0000
0000
,  // measure 37
0100
0000
0000
0010
0000
0000
0001
0000
,  // measure 38
0100
0000
0000
1000
0000
0001
0000
0000
,  // measure 39
0100
0010
0100
0000
,  // measure 40
0000
0000
0000
0000
1000
0000
0000
0001
,  // measure 41
0000
0000
0010
0000
0100
0000
0000
1000
,  // measure 42
0000
0000
0100
0100
0000
0000
0000
0000
,  // measure 43
0001
0010
0200
0300
,  // measure 44
0001
0000
0000
0010
0000
0000
0100
0000
,  // measure 45
0010
0000
0000
1000
0000
0000
0100
0000
,  // measure 46
0001
0000
0000
0010
0000
0100
0000
0000
,  // measure 47
1000
0010
0001
0000
,  // measure 48
0000
0000
0000
0000
0001
0000
0000
0010
,  // measure 49
0000
1000
0100
0001
,  // measure 50
0010
0000
1000
0001
,  // measure 51
1000
0000
0100
0010
,  // measure 52
0002
0000
2003
0000
,  // measure 53
0000
0000
0000
3000
,  // measure 54
0000
0000
0000
0001
0000
0010
0000
0100
,  // measure 55
0000
0001
0000
1000
0000
1000
0000
1000
,  // measure 56
0000
0100
0000
0010
0000
0001
0000
0100
,  // measure 57
0000
1000
0000
0001
0000
0001
0000
0001
,  // measure 58
0000
0001
0000
1000
0000
0100
0000
0010
,  // measure 59
0000
0001
0000
0100
0000
0010
0000
0010
,  // measure 60
0000
0010
0000
0020
0000
0000
0000
0030
;
