#TITLE:Everyday Lovelyday (L.E.D. Style Mix V2);
#ARTIST:Togo-chef feat. Sana;
#FILE:everydaylovelyday_LEDstylemix.mp3;
#BPM:134.001;
#GAP:0;
#SAMPLESTART:68.436;
#SAMPLELENGTH:23.240;
#CDTITLE:timerrabbit.PNG;
#FREEZE:563.000=200.000;
#CHANGEBPM:484.000=74.001,518.000=84.001,528.000=94.001,540.000=104.001,559.000=85.001,560.000=54.001,561.000=34.001,562.000=14.001,563.000=4.001,563.000=4.001,563.000=134.001;
#SINGLE:MANIAC:7:
00000000
00484062
60101090
90686024
20707030
30482068
20A0A0A0
A0628042
80B0B0B0
B0824082
60848262
60286028
40686242
40B04040
68204200
862!202008
48080806
28!8080004
24062804
6282!20208
04268000
40646082
00B06060
48206800
842!202006
84020608
26!6060004
84068604
62880006
86242820
[000000000400208!8086000000]
`80000000000000000000000020000000000000004!400000000000000040000000800000000000000000000000000000006000000000000000200000000000000000006!600000000000600000000000000000000000600000000000000000000000'
(0000004006004000)
(200800200000B000)
(00B0000020008002!2)
(0002006080604020)
48042468
620464!404
8628!80800
46406286
80404824
80820000
46402806
04028682
44048282
640628!808
2468!80800
28206!6009!8
00A!201!401!20
A6008020
42008060
28!807!40060
60606060
60B08680
42403030
70704840
26201010
90906460
2820A0A0
B0B!B000B0
;
#SINGLE:ANOTHER:5:
00000000
00808020
20303070
70606040
40707030
30808020
20A0A0A0
A0202080
80B0B0B0
B0406060
40208028
20604040
60406046
40608080
40208080
686!606040
20402060
8!80800002
22060600
40444002
06660000
40604060
00402020
60804040
268!808080
60208040
2!20200004
44080800
20222004
06028200
000486!660
824!440268!8
8464!401!2A!88
(6!6064!4046!6060008000)
(0020000040006004!4)
(0004004000800020)
60060802
40040640
28200000
28204006
08002004
00860000
28204208
02060208
40080206
80080260
84200000
64604008
00602080
42004060
28004020
864!40B!6000
00000000
60004840
6260B0B0
B0B04840
6260A0A0
A0A02820
6460A0A0
B0B!B000B0
;
#SINGLE:BASIC:4:
00000000
00402040
20808080
80608060
80202020
20402040
20606060
60608060
80404040
40802040
80602040
80206080
40206080
402!202000
60208!8080
4020004!40
B0208060
6!60600004
08020606
00204000
206!600060
00000000
008!808000
40802!2020
6080004!40
10608020
4!40400006
02080404
00806000
40208060
00040406
06002020
80840860
(8002008000004!4000)
(406!600000602!200208!8)
(0008006000004000)
20080060
20040600
20802000
00004006
00802004
00220000
60802!2020
60080020
80040020
60080200
40806000
00006008
00402060
80004060
40002080
6!6000B!4000
00000040
00060802
06040404
02080602
04060606
06040208
06020808
0808!80008
;
