#TITLE:Dokkyun*HEART Stole the Presious Thing;
#SUBTITLE:;
#ARTIST:Jessica Ushiromiya VS. IOSYS;
#TITLETRANSLIT:;
#SUBTITLETRANSLIT:;
#ARTISTTRANSLIT:;
#GENRE:;
#CREDIT:Timer Rabbit;
#MENUCOLOR:;
#NEWMETERSYSTEM:NO;
#BANNER:dokyunmarisa_bn.PNG;
#BACKGROUND:dokyunmarisa_bg.PNG;
#LYRICSPATH:;
#CDTITLE:timerrabbit.png;
#MUSIC:dokyunmarisa.mp3;
#OFFSET:0.000;
#SAMPLESTART:68.834;
#SAMPLELENGTH:12.000;
#SELECTABLE:YES;
#LISTSORT:;
#BPMS:0.000=170.012;
#STOPS:;
#BGCHANGES:0.000=dokyunmarisa_vid.AVI=1.000=1=1=0,
332.000=dokyunmarisa_bg.png=1.000=1=0=1,
99999=-nosongbg-=1.000=0=0=0 // don't automatically add -songbackground-
;
#ATTACKS:;

//---------------dance-single - ----------------
#NOTES:
     dance-single:
     :
     Challenge:
     9:
     0.671,0.853,0.329,0.123,0.345: // measure 1
0000
0000
0000
0000
,  // measure 2
0101
0000
0000
0000
,  // measure 3
1010
0000
0000
0000
,  // measure 4
1100
0000
0011
0000
,  // measure 5
0110
0000
0000
0000
1001
0000
0000
0000
1000
0001
1000
0001
1000
0001
0000
1000
,  // measure 6
0000
0001
0000
1000
0000
0001
0000
0000
1000
0000
0100
0000
1000
0000
0100
0000
,  // measure 7
1100
0000
0000
0000
0010
0001
0010
0001
,  // measure 8
0011
0000
0001
1000
1001
0000
0000
0000
,  // measure 9
1000
0100
0010
0220
0000
0330
0000
0000
,  // measure 10
1000
0001
0001
0100
0010
0010
1000
0100
,  // measure 11
0100
0010
1000
1000
0100
0010
0100
0010
,  // measure 12
1000
0100
0100
0010
0001
0001
0100
0010
,  // measure 13
0010
0001
1000
1000
0001
1000
0001
1000
,  // measure 14
0001
1000
1000
0010
0001
0001
0100
0010
,  // measure 15
0010
0001
1000
1000
0100
0100
0010
0010
,  // measure 16
0001
1000
0001
1000
1000
1000
1000
0000
,  // measure 17
1000
0001
0000
0000
0001
1000
0000
0000
1000
0100
0000
0000
0010
0001
0010
0000
,  // measure 18
1000
0100
0001
0100
1000
0100
0001
0100
,  // measure 19
1000
0010
0001
0010
1000
0010
0001
0010
,  // measure 20
1000
0000
0010
0000
0001
0000
0100
0000
1000
0001
1000
0001
1000
0001
0000
0000
,  // measure 21
1000
1000
0001
0001
0100
0100
0010
0010
,  // measure 22
0001
0100
0001
0100
0010
1000
0010
1000
,  // measure 23
0100
1000
0100
1000
0100
0010
0100
0010
,  // measure 24
1000
0001
1000
0001
1000
0001
1000
0001
1000
0001
1000
0001
1000
0001
1000
0001
,  // measure 25
1000
0001
1000
0001
1000
0001
1000
0001
1000
0001
0000
0000
2002
0000
0000
0000
,  // measure 26
0000
3003
0001
0100
0001
0100
0001
0001
,  // measure 27
0001
0000
1000
0100
1000
0100
1000
1000
,  // measure 28
1000
0000
0100
0010
0100
0010
0100
0100
,  // measure 29
0100
0000
0010
0100
0010
0100
0010
0010
,  // measure 30
1100
0000
0000
0000
0000
0011
0000
0000
0000
0000
0000
0000
0000
0000
0000
0000
,  // measure 31
0101
0000
0000
0000
0000
1010
0000
0000
0000
0000
0000
0000
0000
0000
0000
0000
,  // measure 32
0110
0000
0000
0000
0000
1001
0000
0000
0000
0000
0000
0000
0000
0000
0000
0000
,  // measure 33
1000
0001
0000
0000
0001
1000
0000
0000
1000
0001
0000
0000
0001
1000
0000
0000
,  // measure 34
1000
0100
1000
0100
1000
0100
1000
0100
,  // measure 35
1000
0100
1000
0100
1000
0100
1000
0100
,  // measure 36
1000
0010
0001
0010
0001
0010
0001
0010
,  // measure 37
0001
0010
0001
0010
0001
1000
0001
0000
,  // measure 38
0001
0100
0001
0100
0001
0100
0001
0100
,  // measure 39
0001
0100
0001
0100
0001
0100
0001
0010
,  // measure 40
1000
0010
1000
0010
1000
0010
1000
0010
,  // measure 41
1000
0010
1000
0001
1000
0001
1000
0001
,  // measure 42
1000
0001
0000
0000
0001
1000
0000
0000
1000
0001
0000
0000
0001
1000
0000
0000
,  // measure 43
1000
0001
0000
0000
0001
1000
0000
0000
1000
0001
0000
0000
0001
1000
0000
0000
,  // measure 44
0100
0010
0000
0000
0010
0100
0000
0000
0100
0010
0000
0000
0010
0100
0000
0000
,  // measure 45
0100
0010
0000
0000
0010
0100
0000
0000
0100
0010
0000
0000
0010
0100
0000
0000
,  // measure 46
1100
0011
0101
1010
,  // measure 47
0110
1001
0110
1001
,  // measure 48
0001
1000
0000
0000
1000
0100
0000
0000
0010
0001
0000
0000
0001
1000
0000
0000
,  // measure 49
1000
0100
0000
0000
1000
0100
0000
0000
0010
0001
0000
0000
0010
0001
0000
0000
,  // measure 50
0101
0100
1010
1000
0001
1000
0001
0000
,  // measure 51
1100
0100
0011
1000
0001
1000
0000
0000
,  // measure 52
0001
0100
0001
0010
1000
0010
0000
0000
,  // measure 53
1000
0001
1000
0000
0001
0000
1000
0000
,  // measure 54
0100
0010
0001
0000
0100
0000
0010
0000
,  // measure 55
1000
0000
0001
0000
,  // measure 56
1000
0100
0000
0010
,  // measure 57
0001
0000
2000
0000
0000
0000
0000
3000
,  // measure 58
0011
0001
0101
0100
0010
0100
0010
0000
,  // measure 59
1010
1000
1100
0100
0010
0100
0010
0000
,  // measure 60
0100
0100
0100
0010
0010
0010
0000
0000
,  // measure 61
0001
1000
0001
0000
1000
0000
0001
0000
,  // measure 62
0100
0010
1000
0100
,  // measure 63
0020
0000
0032
0000
,  // measure 64
0103
0010
2000
0000
,  // measure 65
0000
0000
0000
0000
0000
0000
0000
3000
,  // measure 66
1000
0010
1000
0100
0010
0100
0001
1000
,  // measure 67
0100
0010
0000
0000
0010
0100
0000
0000
0100
0010
0000
0000
0010
0100
0000
0000
,  // measure 68
0001
0000
0100
0000
0001
0000
0010
0000
0100
0000
0010
0000
0000
0000
1000
0001
,  // measure 69
0000
0000
0001
1000
0000
0000
1000
0001
0000
0000
0001
1000
0000
0000
0000
0000
,  // measure 70
1000
1000
1000
0010
0001
1000
0000
0000
,  // measure 71
0001
0001
0001
0010
1000
0001
0000
0000
,  // measure 72
0100
0100
0100
0010
0001
0100
0000
0000
,  // measure 73
1000
0100
0000
0000
0010
0001
0000
0000
0001
0100
0000
0000
0010
1000
0000
0000
,  // measure 74
0010
0100
0010
0001
1000
0001
1000
0100
,  // measure 75
0001
1000
0000
0000
1000
0001
0000
0000
0001
1000
0000
0000
1000
0001
0000
0000
,  // measure 76
1000
0000
0001
0000
1000
0000
0100
0000
0010
0000
0100
0000
0000
0000
0001
0100
,  // measure 77
0000
0000
0010
1000
0000
0000
1000
0100
0000
0000
0100
0010
0000
0000
0000
0000
,  // measure 78
0101
0000
1010
0000
1000
0001
0000
0110
,  // measure 79
0000
0001
1000
0000
0100
0000
0010
0000
,  // measure 80
2020
3030
0202
0303
,  // measure 81
0220
0000
0000
0000
0330
0000
0000
0000
1000
0000
0000
0001
0000
1000
0000
0002
,  // measure 82
0000
0000
0000
0000
,  // measure 83
0003
0000
0000
0000
1000
0100
1000
0000
0010
0001
0010
0000
0100
0010
0100
0000
,  // measure 84
1001
0000
0000
0000
;
