#TITLE:Ding Dang Dong;
#SUBTITLE:;
#ARTIST:R2 DM;
#TITLETRANSLIT:;
#SUBTITLETRANSLIT:;
#ARTISTTRANSLIT:;
#CREDIT:Timer Rabbit;
#BANNER:dingdangdong_bn.PNG;
#BACKGROUND:dingdangdong_bg.PNG;
#LYRICSPATH:;
#CDTITLE:timerrabbit.png;
#MUSIC:DingDangDong.mp3;
#OFFSET:0.000;
#SAMPLESTART:40.816;
#SAMPLELENGTH:12.000;
#SELECTABLE:YES;
#BPMS:0.000=145.000;
#STOPS:;
#BGCHANGES:;

//---------------dance-single - ----------------
#NOTES:
     dance-single:
     :
     Challenge:
     8:
     0.399,0.479,0.307,0.063,0.024: // measure 1
0000
0000
0000
0000
,  // measure 2
0000
0000
0000
0000
,  // measure 3
0000
0000
0000
0000
,  // measure 4
0000
0000
0000
0000
,  // measure 5
0000
0000
0000
0000
,  // measure 6
0000
0000
0000
0000
,  // measure 7
0000
0000
0000
0000
,  // measure 8
0000
0000
0000
0000
,  // measure 9
0000
0000
0000
0000
,  // measure 10
0000
0000
0000
0000
,  // measure 11
0000
0000
0000
0000
,  // measure 12
0000
0000
0000
0000
,  // measure 13
0000
0000
0000
0000
,  // measure 14
0000
0000
0000
0000
,  // measure 15
0000
0000
0000
0000
,  // measure 16
0000
0000
0000
0000
,  // measure 17
0000
0000
1000
0100
,  // measure 18
0001
0100
1000
0010
,  // measure 19
0001
0010
1000
1000
,  // measure 20
1000
0000
0001
0001
,  // measure 21
0001
0000
0000
0000
1000
0100
0010
0001
,  // measure 22
0000
0001
0000
0000
0001
0010
0100
1000
,  // measure 23
0000
1000
0000
0000
0001
0000
0100
0000
,  // measure 24
0001
0000
1000
0010
,  // measure 25
1000
0000
0000
0000
1000
0100
0010
0100
,  // measure 26
0010
0001
0100
0000
0001
0010
0100
0010
,  // measure 27
0100
1000
0100
0000
1100
0000
0101
0000
,  // measure 28
0011
0000
0011
1010
,  // measure 29
1100
0000
0000
0000
0001
0010
0100
1000
,  // measure 30
0000
1000
0000
1000
0100
0010
0001
0000
,  // measure 31
0001
0000
1000
0010
,  // measure 32
1000
0000
0100
0001
,  // measure 33
0100
0000
0000
0000
0001
0010
0001
0000
,  // measure 34
1000
0100
1000
0000
0100
0010
0100
0010
,  // measure 35
0100
0010
0100
0000
1000
0010
1000
0000
,  // measure 36
0001
0100
0001
0000
1000
0001
1000
0001
,  // measure 37
1000
0001
1000
0000
0001
0010
0001
0000
,  // measure 38
1000
0100
1000
0000
0100
0010
0100
0010
,  // measure 39
0100
0010
0100
0000
1000
0010
1000
0000
,  // measure 40
0001
0100
0001
0000
1000
0001
1000
0001
,  // measure 41
1000
0001
1000
0000
1010
0000
0101
0000
,  // measure 42
0010
1000
0010
0000
1100
0000
0011
0000
,  // measure 43
0001
0010
0001
0000
0110
0000
1001
0000
,  // measure 44
0100
0010
0100
0000
1100
0000
0101
0000
,  // measure 45
0001
0100
0001
0000
0011
0000
1010
0000
,  // measure 46
1000
0010
1000
0000
1100
0000
0011
0000
,  // measure 47
0001
0010
0001
0000
0101
0000
1010
0000
,  // measure 48
1000
0100
1000
0000
0001
1000
0001
1000
,  // measure 49
0001
1000
0001
0000
1001
0000
0012
0000
,  // measure 50
1000
0010
1000
0010
,  // measure 51
1000
0013
2010
0001
,  // measure 52
0010
0001
0010
0001
,  // measure 53
0010
3001
0102
1000
,  // measure 54
0100
1000
0100
1000
,  // measure 55
0100
1003
2100
0001
,  // measure 56
0100
0001
0100
0001
,  // measure 57
0100
0000
3001
0000
0001
0100
0001
0010
,  // measure 58
0100
0010
1000
0000
1000
0100
1000
0010
,  // measure 59
0100
0010
0001
0000
1000
0000
0001
0000
,  // measure 60
1000
0000
0100
0010
,  // measure 61
0100
0000
0000
0000
1000
0100
0010
0001
,  // measure 62
0000
0001
0000
0001
0010
0100
1000
0000
,  // measure 63
1000
0000
0100
0010
,  // measure 64
0100
0000
1000
0001
,  // measure 65
1000
0000
0000
0000
1000
0010
1000
0100
,  // measure 66
0010
0100
0001
0000
0001
0010
0001
0100
,  // measure 67
0010
0100
1000
0000
0101
0000
0110
0000
,  // measure 68
1100
0000
1100
0110
,  // measure 69
0101
0000
0000
0000
0001
0010
0100
1000
,  // measure 70
0000
1000
0000
1000
0100
0010
0001
0000
,  // measure 71
0001
0000
1000
0001
,  // measure 72
1000
0000
0100
0010
,  // measure 73
0100
0000
0000
0000
2002
0000
0000
3003
,  // measure 74
0000
0000
0000
0000
,  // measure 75
0000
0000
0000
0000
,  // measure 76
0000
0000
0000
0000
,  // measure 77
0000
0000
0001
0100
,  // measure 78
0001
0000
0000
0000
0100
0000
0000
0000
1000
0010
1000
0010
1000
0000
0000
0000
,  // measure 79
0001
0100
0001
0100
0001
0000
0000
0000
1000
0000
0000
0000
0100
0000
0000
0000
,  // measure 80
1000
0000
0000
0000
0100
0000
0000
0000
0001
0010
0001
0010
0001
0000
0000
0000
,  // measure 81
1000
0100
1000
0100
1000
0000
0000
0000
0010
0000
0001
0000
0010
0000
0000
0000
,  // measure 82
1000
0100
1000
0000
0001
0001
0001
0000
,  // measure 83
1000
1000
1000
0000
1000
0010
1000
0000
,  // measure 84
0001
0100
0001
0000
1000
1000
1000
0000
,  // measure 85
0001
0001
0001
0000
0001
0010
0100
0000
,  // measure 86
1000
0100
0010
0000
0100
0100
0100
0000
,  // measure 87
0010
0010
0010
0000
0010
0100
1000
0000
,  // measure 88
0100
0010
0001
0000
0010
0010
0010
0000
,  // measure 89
0100
0100
0100
0000
0001
0000
1001
0000
,  // measure 90
1000
0001
1000
0000
0011
0000
1100
0000
,  // measure 91
1000
0100
1000
0000
0010
0001
0100
0000
,  // measure 92
0010
1000
0100
0000
1000
0001
1000
0000
,  // measure 93
0101
0000
0101
0000
0010
1000
0100
0000
,  // measure 94
0010
0001
0100
0000
1000
0001
1000
0001
,  // measure 95
1000
0000
1000
0100
0010
0001
0010
0100
,  // measure 96
1000
0000
0001
1000
1001
0000
0110
0000
,  // measure 97
2002
3003
0011
1100
,  // measure 98
0100
0001
0100
0000
1010
0000
0101
0000
,  // measure 99
1000
0100
1000
0000
0110
0000
1001
0000
,  // measure 100
0100
0010
0100
0000
0011
0000
1100
0000
,  // measure 101
0001
0010
0001
0000
1010
0000
0011
0000
,  // measure 102
1000
0100
1000
0000
0101
0000
1010
0000
,  // measure 103
1000
0100
1000
0000
0011
0000
1100
0000
,  // measure 104
0001
0100
0001
0000
1000
0001
1000
0001
,  // measure 105
1000
0001
1000
0000
1001
0000
0012
0000
,  // measure 106
1000
0010
1000
0010
,  // measure 107
1000
0013
2010
0001
,  // measure 108
0010
0001
0010
0001
,  // measure 109
0010
3001
0102
1000
,  // measure 110
0100
1000
0100
1000
,  // measure 111
0100
1003
2100
0001
,  // measure 112
0100
0001
0100
0001
,  // measure 113
0100
3001
1000
0100
,  // measure 114
0001
0100
0001
0010
,  // measure 115
0100
1000
0100
0010
,  // measure 116
0100
0000
0001
1000
,  // measure 117
0001
0000
0000
0000
1000
0100
0010
0001
,  // measure 118
0000
0001
0000
0001
0010
0100
1000
0000
,  // measure 119
1000
0000
0001
0010
,  // measure 120
0001
0000
1000
0100
,  // measure 121
1000
0000
0000
0000
0001
0010
0001
0100
,  // measure 122
0010
0100
1000
0000
1000
0010
1000
0100
,  // measure 123
0010
0100
0001
0000
1100
0000
0101
0000
,  // measure 124
1010
0000
0101
1100
,  // measure 125
0011
0000
0000
0000
0001
0010
0100
1000
,  // measure 126
0000
1000
0000
1000
0100
0010
0001
0000
,  // measure 127
0001
0000
1000
0010
,  // measure 128
1000
0000
0001
0100
,  // measure 129
0001
0000
0000
0000
,  // measure 130
0000
0000
0000
0000
,  // measure 131
0000
0000
0000
0000
,  // measure 132
0000
0000
0000
0000
,  // measure 133
0000
0000
1000
0100
,  // measure 134
1000
0000
0000
0000
0100
0000
0000
0000
0001
0010
0001
0010
0001
0000
0000
0000
,  // measure 135
1000
0100
1000
0100
1000
0000
0000
0000
0001
0000
0000
0000
0010
0000
0000
0000
,  // measure 136
0001
0000
0000
0000
0010
0000
0000
0000
1000
0100
1000
0100
1000
0000
0000
0000
,  // measure 137
0001
0010
0001
0010
0001
0000
0000
0000
1000
0000
0010
0000
1000
0000
0000
0000
,  // measure 138
0001
0100
0001
0000
1000
1000
1000
0000
,  // measure 139
0001
0001
0001
0000
1000
0100
1000
0000
,  // measure 140
0001
0010
0001
0000
1000
1000
1000
0000
,  // measure 141
0001
0001
0001
0000
1000
0100
0010
0000
,  // measure 142
0001
0010
0100
0000
0010
0010
0010
0000
,  // measure 143
0100
0100
0100
0000
1000
0100
0010
0000
,  // measure 144
0001
0010
0100
0000
0100
0100
0100
0000
,  // measure 145
0010
0010
0010
0000
2001
0000
0010
0000
,  // measure 146
0001
3010
1002
0010
,  // measure 147
1000
0013
1001
1100
,  // measure 148
1001
0000
1001
0101
,  // measure 149
1001
0000
0000
0000
1000
0100
0010
0001
,  // measure 150
0000
0001
0000
0001
0010
0100
1000
0000
,  // measure 151
1000
0000
0001
0100
,  // measure 152
0001
0000
1000
0100
,  // measure 153
1000
0000
1002
0010
,  // measure 154
1000
0013
2001
0010
,  // measure 155
0001
3010
1001
0110
,  // measure 156
1001
0000
1001
0110
,  // measure 157
1001
0000
0000
0000
0001
0010
0100
1000
,  // measure 158
0000
1000
0000
1000
0100
0010
0001
0000
,  // measure 159
0001
0000
1000
0010
,  // measure 160
1000
0000
0001
0010
,  // measure 161
0001
0000
1000
0100
,  // measure 162
0001
0100
1000
0010
,  // measure 163
0001
0010
1000
1000
,  // measure 164
1000
0000
0001
0001
,  // measure 165
0001
0000
0000
0000
1000
0100
0010
0001
,  // measure 166
0000
0001
0000
0000
0001
0010
0100
1000
,  // measure 167
0000
1000
0000
0000
0001
0000
0100
0000
,  // measure 168
0001
0000
1000
0010
,  // measure 169
1000
0000
0000
0000
0001
0010
0001
0100
,  // measure 170
0010
0100
1000
0000
1000
0010
1000
0100
,  // measure 171
0010
0100
0001
0000
0101
0000
1100
0000
,  // measure 172
0011
0000
1100
0101
,  // measure 173
1010
0000
0000
0000
0001
0010
0100
1000
,  // measure 174
0000
1000
0000
1000
0100
0010
0001
0000
,  // measure 175
0001
0000
1000
0010
,  // measure 176
1000
0000
0001
0100
,  // measure 177
0001
0000
2001
0010
,  // measure 178
0001
3010
1002
0010
,  // measure 179
1000
0013
0011
1100
,  // measure 180
0101
0000
1010
0101
,  // measure 181
1100
0000
0000
0000
1000
0100
0010
0001
,  // measure 182
0000
0001
0000
0001
0010
0100
1000
0000
,  // measure 183
1000
0000
0001
0100
,  // measure 184
0001
0000
1000
0100
,  // measure 185
1000
0000
1002
0010
,  // measure 186
1000
0013
2001
0010
,  // measure 187
0001
3010
0110
1001
,  // measure 188
0110
0000
0110
1001
,  // measure 189
0110
0000
0000
0000
0001
0010
0100
1000
,  // measure 190
0000
1000
0000
1000
0100
0010
0001
0000
,  // measure 191
0001
0000
1000
0010
,  // measure 192
1000
0000
0001
0010
,  // measure 193
0001
0000
1000
0010
,  // measure 194
1000
0010
0001
0100
,  // measure 195
0001
0100
1000
1000
,  // measure 196
1000
0000
0001
0001
,  // measure 197
0001
0000
0001
0100
,  // measure 198
1000
0000
1000
0100
,  // measure 199
0001
0000
1000
0100
,  // measure 200
1000
0000
0001
0100
,  // measure 201
0002
0000
0000
0003
;
