#TITLE:Color of Giggles;
#SUBTITLE:;
#ARTIST:SleepelssDragn;
#TITLETRANSLIT:;
#SUBTITLETRANSLIT:;
#ARTISTTRANSLIT:;
#CREDIT:Timer Rabbit;
#BANNER:CoG_bn.PNG;
#BACKGROUND:CoG_bg.PNG;
#LYRICSPATH:;
#CDTITLE:timerrabbit.PNG;
#MUSIC:CoG.mp3;
#OFFSET:0.000;
#SAMPLESTART:30.000;
#SAMPLELENGTH:12.000;
#SELECTABLE:YES;
#BPMS:0.000=200.000;
#STOPS:;
#BGCHANGES:;

//---------------dance-single - ----------------
#NOTES:
     dance-single:
     :
     Hard:
     9:
     0.637,0.662,0.740,0.252,0.025:
0000
0000
0000
0000
,
0000
0000
0000
0000
,
1100
0100
0101
0100
,
1100
0100
0101
0100
,
1000
0010
1000
0000
0001
0100
0001
0000
,
1100
1001
0101
1001
,
0001
0100
0001
0000
0010
1000
0010
0000
,
0011
0110
1010
0110
,
0001
0010
0001
0000
1000
0100
1000
0000
,
0011
0110
1100
1001
,
1000
0010
1000
0000
0001
0100
0001
0000
,
1010
0110
0101
1001
,
0010
1000
0100
0000
0010
0001
0100
0000
,
0010
1000
0100
0010
0001
0100
1000
0000
,
0001
0100
0010
0000
1000
0100
0010
0000
,
0100
0001
0010
1000
0100
0001
0010
0000
,
0100
0010
0001
0000
0100
0010
1000
0000
,
0100
0010
1000
0100
0010
0001
0100
0000
,
0100
0010
1000
0000
0010
0100
0001
0000
,
0100
0010
0001
0100
0010
1000
0100
0000
,
0001
0010
0001
0000
1000
0100
1000
0000
,
0011
0100
1100
0010
,
1000
0010
1000
0000
0001
0100
0001
0000
,
0101
0010
1010
0100
,
1000
0100
1000
0000
0001
0010
0001
0000
,
1100
0100
0011
0100
,
0001
0100
0001
0000
1000
0010
1000
0000
,
0101
0010
1010
0100
,
0100
0010
0010
0000
0010
0100
0100
0000
,
0002
0000
0023
0000
2030
0000
3200
0300
,
0001
1000
1000
0000
1000
0001
0001
0000
,
2000
0000
3020
0000
0032
0000
0203
0300
,
1000
0100
0010
0001
0010
0100
1000
0100
,
0010
0001
0010
0100
1000
0100
0010
0002
,
0000
0013
0100
1000
0100
0010
0001
0000
,
0010
1000
0000
0000
0100
0001
0000
0000
0010
0001
0000
0000
0100
1000
0000
0000
,
1000
0010
0100
0001
,
0010
1000
0100
0001
,
0100
0010
0001
0100
,
1010
0000
0101
0000
0001
0010
0100
1000
,
0100
0010
0001
0100
,
1000
0000
1100
0000
0011
0000
1000
0100
,
0010
0001
0010
0000
0100
0000
1000
0000
,
0110
0000
1001
0000
1000
0010
0100
0001
,
1000
0000
0000
0000
0000
0000
0000
0000
0100
0000
0000
0001
0000
0000
0010
0000
,
0000
0000
1000
0001
,
0002
0000
2003
0000
,
3200
0000
0000
0000
0320
0000
0000
0030
,
0001
0000
0000
0000
0000
0000
0000
0000
0010
0000
0000
1000
0000
0000
0100
0000
,
0000
0001
0001
1000
,
2000
0000
3002
0000
,
0023
0000
0230
0300
,
0100
1100
0100
0101
,
0100
1100
1000
0001
,
0020
0000
0230
0000
,
2300
0000
0000
0000
3002
0000
0000
0003
,
0010
0011
0010
1010
,
0010
0011
0001
1000
,
0002
0000
0203
0000
,
0320
0000
0000
0000
2030
0000
0000
3000
,
1001
0010
0110
0100
,
1001
0010
0101
0100
,
1010
0001
0011
1000
,
1100
0000
1000
0100
0010
0001
0100
0000
,
0110
0010
1010
0100
,
1001
0010
0101
0100
,
1010
0010
1001
0100
,
1100
0000
0001
0010
0100
1000
0010
0000
,
0110
0100
1001
1000
,
1010
0100
1001
0001
,
0101
0010
1010
1000
,
1100
0000
1000
0001
0010
0100
0010
0000
,
0010
0110
0100
1001
,
0010
0011
0100
1100
,
1000
1010
0001
0101
,
0001
1000
0010
0100
0001
1000
0001
1000
,
0002
0000
0000
0000
0003
1010
0000
1100
,
0000
1010
0000
1100
0000
1010
0000
0000
,
2000
0000
0000
0000
3000
0011
0000
0101
,
0000
0011
0000
0101
0000
0011
0000
0000
,
0200
0000
0000
0000
0300
1001
0000
0110
,
0000
1001
0000
0110
0000
1001
0000
0000
,
0020
0000
0000
0000
0030
1100
0000
0110
,
0000
0011
0000
1001
0000
0110
0000
1001
,
1000
0100
1000
0100
0000
0000
0001
0000
,
0000
0001
0000
0001
,
0001
0010
0001
0010
0000
0000
1000
0000
,
0000
1000
0000
1000
,
1000
0010
1000
0010
0000
0000
0100
0000
,
0000
0000
0001
0100
0001
0100
0000
0000
,
1000
0001
1000
0001
1000
0001
0100
0010
,
0100
1000
0100
1000
0100
0010
0001
0010
,
0002
0000
0003
0000
;

//---------------dance-single - ----------------
#NOTES:
     dance-single:
     :
     Medium:
     8:
     0.488,0.544,0.623,0.143,0.000:
0000
0000
0000
0000
,
0000
0000
0000
0000
,
1000
0100
0001
0100
,
1000
0100
0101
0101
,
1010
0000
1100
0000
,
0011
0110
1100
1001
,
0011
0000
0101
0000
,
1100
0110
0101
1001
,
0110
0000
1001
0000
,
0110
0100
1001
0010
,
1001
0000
0110
0000
,
1001
0100
0110
0010
,
1100
0000
0011
0000
,
0001
0010
1000
0100
0010
0001
0100
0000
,
1100
0000
0011
0000
,
1000
0001
0100
0010
0001
1000
0010
0000
,
0011
0000
1100
0000
,
0100
0001
0010
1000
0100
0001
0010
0000
,
1010
0000
0101
0000
,
0010
0001
1000
0100
0010
0001
0100
0000
,
0110
0000
1001
0000
,
0011
0100
1100
0010
,
1001
0000
0110
0000
,
1010
0100
0101
0010
,
0110
0000
1001
0000
,
0101
0010
1010
0100
,
1001
0000
0110
0000
,
1100
0100
0011
0010
,
0010
1000
0001
0100
,
0001
1100
0100
0101
,
0100
0001
0010
1000
,
0010
1010
0010
0011
,
1000
0100
0010
0000
0001
0010
0100
0000
,
1000
0100
0010
0001
0010
0100
1000
0000
,
1000
0010
0100
0000
0100
0001
0010
0000
,
0001
0010
0100
1000
0100
0010
0001
0000
,
1000
0000
0010
0000
,
0001
0000
0100
0100
,
0100
0000
0000
0000
,
1000
0001
1000
0001
1000
0100
0010
0100
,
0010
0000
0000
0000
,
0100
0010
0100
0010
0100
0001
1000
0001
,
1000
0000
0000
0000
,
1000
0010
0100
0001
0010
0100
1000
0010
,
0001
0000
0000
0000
0000
1000
0000
0000
,
0000
0000
0000
0100
0000
0100
0000
0200
,
0000
0000
0320
0000
,
0032
0000
0000
0000
0203
0000
0000
0300
,
1000
0000
0000
0000
0000
0001
0000
0000
,
0000
0000
0000
0010
0000
0010
0000
0020
,
0000
0000
2030
0000
,
3200
0000
0000
0000
0302
0000
0000
0003
,
0100
0000
0000
0000
0000
0010
0000
0000
,
0000
0000
0000
0001
0000
0001
0000
0002
,
0000
0000
0203
0000
,
2300
0000
0000
0000
3020
0000
0000
0030
,
0010
0000
0000
0000
0000
0100
0000
0000
,
0000
0000
0000
1000
0000
1000
0000
2000
,
0000
0000
3020
0000
,
0032
0000
0000
0000
0203
0000
0000
0300
,
1000
0010
0100
0001
,
0010
1100
1100
1100
,
0001
0010
1000
0100
,
0001
0101
0101
0101
,
1000
0001
0100
0010
,
1000
0011
0011
0011
,
0001
1000
0010
0100
,
0001
1010
1010
1010
,
0001
0010
0100
1000
,
0001
0101
1001
1100
,
1000
0100
0010
0001
,
1000
0011
0110
1010
,
0010
0100
1000
0001
,
0010
0011
1001
1010
,
0100
0010
1000
0001
,
0100
0101
0110
1100
,
1000
0000
0010
0001
,
0100
0000
1000
0000
,
0001
0000
0010
1000
,
0100
0000
0001
0000
,
0010
0000
0100
0010
,
0100
0000
0010
0000
,
1000
0000
0001
1000
,
0001
0000
1000
0000
,
1000
0100
1000
0100
0000
0000
0001
0000
,
0000
0001
0000
0001
,
0001
0100
0001
0100
0000
0000
1000
0000
,
0000
1000
0000
1000
,
1000
0010
1000
0010
0000
0000
0000
0000
,
0000
0000
0001
0010
0001
0010
0000
0000
,
1000
0100
0001
0010
,
0100
0000
1000
0001
1000
0001
1000
0002
,
0000
0000
0000
0003
0000
0000
0000
0000
;

//---------------dance-single - ----------------
#NOTES:
     dance-single:
     :
     Easy:
     7:
     0.448,0.505,0.311,0.025,0.000: // measure 1
0000
0000
0000
0000
,  // measure 2
0000
0000
0000
0000
,  // measure 3
1000
0010
0100
0001
,  // measure 4
0010
0011
0011
0011
,  // measure 5
1000
0100
0010
0001
,  // measure 6
0001
0010
0001
0010
0001
0010
0001
0000
,  // measure 7
0001
0010
0100
1000
,  // measure 8
1000
0100
1000
0100
1000
0100
1000
0000
,  // measure 9
1000
0001
0010
0100
,  // measure 10
0001
1000
0001
1000
0001
1000
0001
0000
,  // measure 11
1000
0010
0001
0100
,  // measure 12
0010
0100
0010
0100
0010
0100
0010
0000
,  // measure 13
0010
0001
0100
1000
,  // measure 14
0001
0010
0001
0010
0001
0010
0001
0000
,  // measure 15
0010
1000
0001
0100
,  // measure 16
1000
0010
1000
0010
1000
0010
1000
0000
,  // measure 17
1000
0001
0100
0010
,  // measure 18
1000
0100
1000
0100
1000
0100
1000
0000
,  // measure 19
0001
1000
0010
0100
,  // measure 20
0001
0100
0001
0100
0001
0100
0001
0000
,  // measure 21
1000
0010
0100
0001
,  // measure 22
1000
0010
0100
1000
0010
0100
1000
0000
,  // measure 23
0001
0010
0100
0001
,  // measure 24
0001
0100
0010
0001
0100
0010
0001
0000
,  // measure 25
1000
0001
0010
0100
,  // measure 26
1000
0100
0010
0001
1000
0100
0010
0000
,  // measure 27
0001
1000
0010
0100
,  // measure 28
0001
0010
0100
1000
0010
0100
1000
0000
,  // measure 29
1001
0000
1001
0000
,  // measure 30
0010
0100
0010
0100
,  // measure 31
0110
0000
0110
0000
,  // measure 32
0001
1000
0001
1000
,  // measure 33
1000
0100
0010
0001
,  // measure 34
0010
0100
1000
1000
,  // measure 35
1000
0100
0010
0001
,  // measure 36
0001
1000
0001
1000
0001
1000
0001
0000
,  // measure 37
0002
0000
0000
0003
0001
0000
0000
2000
,  // measure 38
0000
0000
3000
1000
0000
1000
0000
1000
,  // measure 39
0000
0100
0100
0100
,  // measure 40
0000
0010
0010
0010
,  // measure 41
0000
0001
0001
0001
,  // measure 42
0000
1000
1000
1000
,  // measure 43
0000
0110
0110
0110
,  // measure 44
0000
1001
1001
1001
,  // measure 45
0001
0000
0000
0000
0000
1000
0000
0000
,  // measure 46
0000
0010
0001
0010
,  // measure 47
0000
1000
0100
1000
,  // measure 48
0010
0000
0100
0000
,  // measure 49
1000
0000
0000
0000
0000
0001
0000
0000
,  // measure 50
0000
0010
1000
0010
,  // measure 51
0000
0001
0100
0001
,  // measure 52
0100
0000
0010
0000
,  // measure 53
0100
0000
0000
0000
0000
0010
0000
0000
,  // measure 54
0000
0010
0100
0010
,  // measure 55
0000
1000
0001
1000
,  // measure 56
0010
0000
0100
0000
,  // measure 57
0010
0000
0000
0000
0000
0100
0000
0000
,  // measure 58
0000
0001
1000
0001
,  // measure 59
0000
0010
0100
0010
,  // measure 60
0001
0000
1000
0000
,  // measure 61
1100
0000
1000
0000
,  // measure 62
1100
0000
1000
0100
,  // measure 63
0101
0000
0001
0000
,  // measure 64
0101
0001
0100
1000
,  // measure 65
1010
0000
1000
0000
,  // measure 66
1010
0000
0001
0010
,  // measure 67
0011
0000
0001
0000
,  // measure 68
0011
1000
0100
0010
,  // measure 69
1001
0000
0100
0000
,  // measure 70
1001
0000
0010
0100
,  // measure 71
0110
0000
0010
0000
,  // measure 72
0110
0010
0100
1000
,  // measure 73
0011
0000
0110
0000
,  // measure 74
1100
0100
0010
0001
,  // measure 75
1010
0000
0110
0000
,  // measure 76
0101
0001
0010
0100
,  // measure 77
1000
1000
1000
1000
,  // measure 78
0000
0001
0001
0001
,  // measure 79
0000
0010
0010
0010
,  // measure 80
0000
0100
0100
0100
,  // measure 81
0000
1000
0001
1000
,  // measure 82
0000
0010
0100
0010
,  // measure 83
0000
1100
1100
1100
,  // measure 84
0000
0011
0011
0011
,  // measure 85
1000
0100
1000
0100
0000
0000
0000
0000
,  // measure 86
0000
0000
0000
0000
,  // measure 87
0001
0010
0001
0010
0000
0000
0000
0000
,  // measure 88
0000
0000
0000
0000
,  // measure 89
0010
1000
0010
1000
0000
0000
0000
0000
,  // measure 90
0000
0000
0100
0001
0100
0001
0000
0000
,  // measure 91
1000
0001
0010
0100
,  // measure 92
0100
0010
0100
0001
1000
0001
1000
0002
,  // measure 93
0000
0000
0000
0003
0000
0000
0000
0000
;
