#TITLE:Castles in the Sky;
#SUBTITLE:(DJ Satomi RMX);
#ARTIST:DJ Satomi with Kree Tsukiisa;
#TITLETRANSLIT:;
#SUBTITLETRANSLIT:;
#ARTISTTRANSLIT:;
#CREDIT:Timer Rabbit;
#BANNER:castlesinthesky_bn.PNG;
#BACKGROUND:castlesinthesky_bg.PNG;
#LYRICSPATH:;
#CDTITLE:timerrabbit.PNG;
#MUSIC:castlesinthesky.mp3;
#OFFSET:0.000;
#SAMPLESTART:37.738;
#SAMPLELENGTH:12.000;
#SELECTABLE:YES;
#BPMS:0.000=158.990;
#STOPS:;
#BGCHANGES:;

//---------------dance-single - ----------------
#NOTES:
     dance-single:
     :
     Challenge:
     8:
     0.537,0.529,0.409,0.296,0.000: // measure 1
0000
0000
0000
0000
0000
0000
0000
1000
,  // measure 2
0100
1000
0000
0010
0001
0010
0000
0001
,  // measure 3
0100
0001
0000
0010
1000
0010
0000
0001
,  // measure 4
1000
0002
0003
1000
0001
2000
3000
0100
,  // measure 5
0010
0100
0010
0100
0010
0100
0000
0001
,  // measure 6
1000
1000
0000
1000
0001
0001
0000
0100
,  // measure 7
0010
0010
0000
0010
0100
0100
0000
0010
,  // measure 8
0100
0001
0000
0010
0100
1000
0000
0001
,  // measure 9
1000
0001
1000
0001
1000
0001
0000
0010
,  // measure 10
0100
1100
0000
0100
0010
0011
0000
0010
,  // measure 11
1000
0101
0000
0100
0001
1010
0000
0001
,  // measure 12
1000
0001
0000
0100
0010
0100
0000
1000
,  // measure 13
0100
1000
0100
0001
0100
0002
0000
0003
,  // measure 14
0000
0100
0010
1010
0000
0010
0100
0101
,  // measure 15
0000
0100
0001
1100
0000
0010
1000
0011
,  // measure 16
0000
0010
0100
0010
0100
0010
0000
1000
,  // measure 17
0001
1000
0001
1000
0001
1000
0000
0000
,  // measure 18
0012
0000
1000
0000
,  // measure 19
0100
0000
0010
0003
,  // measure 20
2100
0000
0010
0000
,  // measure 21
0001
0000
0100
3000
,  // measure 22
1000
0100
1000
0100
1000
0010
0001
0010
,  // measure 23
0001
0010
0001
1000
0100
0010
0002
0000
,  // measure 24
0003
0110
0000
1001
0000
0001
0010
0100
,  // measure 25
1000
2000
0000
0000
0000
0000
0000
3000
,  // measure 26
0000
1001
0000
0010
0000
0100
0010
0100
,  // measure 27
0000
0110
0000
0001
0000
1000
0001
1000
,  // measure 28
0000
1100
0000
0010
0000
0001
0010
0001
,  // measure 29
0000
0101
0000
0010
0000
1000
0010
1000
,  // measure 30
0000
1010
0000
0001
0000
0100
0001
0100
,  // measure 31
0000
0011
0000
1000
0000
0100
1000
0100
,  // measure 32
0000
1001
0000
0100
0000
0010
0100
0010
,  // measure 33
0000
0110
0000
1000
0000
0001
1000
0001
,  // measure 34
0000
1100
0000
0000
0010
0001
0000
0010
,  // measure 35
1000
0010
0000
0000
0100
0001
0000
0100
,  // measure 36
0001
0100
0000
0000
1000
0010
0000
0001
,  // measure 37
0010
0001
0000
0000
1000
0100
0000
0100
,  // measure 38
0010
0001
0000
0000
0010
1000
0000
0010
,  // measure 39
1000
0100
0000
0000
0100
0001
0000
0001
,  // measure 40
1000
0001
0000
0000
0100
0010
0000
0100
,  // measure 41
0010
0100
0000
0000
0010
0100
0000
0000
,  // measure 42
0000
0002
0000
0203
0000
0320
0000
0030
,  // measure 43
0000
2000
0000
3200
0000
0320
0000
0030
,  // measure 44
0000
0002
0000
0023
0000
2030
0000
3000
,  // measure 45
0000
0200
0000
0302
0000
0023
0000
0030
,  // measure 46
0000
1000
0001
1000
0001
0100
0010
0100
,  // measure 47
1000
0100
0010
0001
0010
0100
1000
0000
,  // measure 48
1000
0100
1000
0100
0010
0001
0010
0001
,  // measure 49
0100
1000
0001
1000
0001
1000
0000
0000
,  // measure 50
0000
1010
0000
0001
0000
0100
0001
0100
,  // measure 51
0000
0001
1000
0001
1000
0001
0000
0000
,  // measure 52
0000
0011
0000
1000
0000
0100
1000
0100
,  // measure 53
0000
0100
0010
0100
0010
0100
0000
0000
,  // measure 54
0000
1100
0000
0010
0000
0001
0010
0001
,  // measure 55
0000
0101
0000
0010
0000
1000
0010
1000
,  // measure 56
0000
0011
0000
0100
0000
1000
0100
1000
,  // measure 57
0000
1010
0000
0010
0000
0001
0100
0001
,  // measure 58
0000
0012
0000
1000
0000
0010
0000
1000
,  // measure 59
0000
0010
0000
1003
0000
1000
0010
1000
,  // measure 60
0000
2010
0000
0001
0000
0010
0000
3001
,  // measure 61
0000
0001
1000
0100
0010
0001
0000
0000
,  // measure 62
0000
0001
0000
0010
0001
0010
0000
1000
,  // measure 63
0000
0100
1000
0100
0001
0200
0000
0300
,  // measure 64
0000
0010
0000
1000
0001
1000
0000
0000
,  // measure 65
0010
0000
0000
0100
0000
0000
0010
0000
0000
0100
0000
0000
0010
0000
0000
0100
0000
0000
0020
0000
0030
0000
0000
0000
,  // measure 66
2010
0000
0001
0000
,  // measure 67
0100
0000
0010
3000
,  // measure 68
0102
0000
0010
0000
,  // measure 69
1000
0000
0100
0003
,  // measure 70
0001
0010
0001
0010
0001
1000
0100
1000
,  // measure 71
0100
1000
0100
0001
0010
0100
2000
0000
,  // measure 72
3000
1001
0000
0110
0000
1000
0100
0010
,  // measure 73
0001
0002
0000
0000
0000
0000
0000
0003
,  // measure 74
0000
0110
0000
1000
0000
0001
1000
0001
,  // measure 75
0000
1001
0000
0100
0000
0010
0100
0010
,  // measure 76
0000
0110
0000
0001
0000
1000
0001
1000
,  // measure 77
0000
1001
0000
0010
0000
0100
0010
0100
,  // measure 78
0000
0011
0000
1000
0000
0100
0001
0100
,  // measure 79
0000
1010
0000
0001
0000
0100
1000
0100
,  // measure 80
0000
0101
0000
0010
0000
1000
0010
1000
,  // measure 81
0000
1100
0000
0100
0000
0010
0001
0010
,  // measure 82
0000
1100
0000
0000
0010
0001
0000
0010
,  // measure 83
1000
0010
0000
0000
0100
0001
0000
0100
,  // measure 84
0001
0100
0000
0000
1000
0010
0000
0001
,  // measure 85
0010
0001
0000
0000
1000
0100
0000
0100
,  // measure 86
0010
0001
0000
0000
0010
1000
0000
0010
,  // measure 87
1000
0100
0000
0000
0100
0001
0000
0001
,  // measure 88
1000
0001
0000
0000
0100
0010
0000
0100
,  // measure 89
0010
0100
0000
0000
0010
0100
0000
0100
,  // measure 90
0000
0011
0000
1000
0000
0101
0000
0000
,  // measure 91
0000
1010
0000
0001
0000
1100
0000
0000
,  // measure 92
0000
0110
0000
0100
0000
1001
0000
0000
,  // measure 93
0000
1100
0000
0110
0000
0011
0000
0000
,  // measure 94
0000
0020
0000
0230
0000
2300
0000
3000
,  // measure 95
0000
0200
0000
0320
0000
0032
0000
0003
,  // measure 96
0000
2000
0000
3002
0000
2003
0000
3000
,  // measure 97
0000
0200
0000
0320
0000
0230
0000
0300
,  // measure 98
0000
1010
0000
1000
0000
0101
0000
0000
,  // measure 99
0000
0011
0000
0001
0000
1100
0000
0000
,  // measure 100
0000
0110
0000
1001
0000
0110
0000
0002
,  // measure 101
0000
2003
0000
3002
0000
2003
0000
3000
,  // measure 102
0000
0101
0000
0010
0000
1100
0000
0000
,  // measure 103
0000
1010
0000
0100
0000
0011
0000
0000
,  // measure 104
0000
1001
0000
0110
0000
1001
0000
0200
,  // measure 105
0000
0320
0000
0230
0000
0320
0000
0030
;
