#TITLE:Carrousel Paradise;
#SUBTITLE:(Step REMAKE);
#ARTIST:SleeplessDragn;
#TITLETRANSLIT:;
#SUBTITLETRANSLIT:;
#ARTISTTRANSLIT:;
#CREDIT:Timer Rabbit;
#BANNER:CP_bn.png;
#BACKGROUND:CP_bg.png;
#LYRICSPATH:;
#CDTITLE:timerrabbit.png;
#MUSIC:CP.mp3;
#OFFSET:0.000;
#SAMPLESTART:33.333;
#SAMPLELENGTH:12.000;
#SELECTABLE:YES;
#BPMS:0.000=180.000;
#STOPS:;
#BGCHANGES:;

//---------------dance-single - ----------------
#NOTES:
     dance-single:
     :
     Easy:
     4:
     0.334,0.439,0.060,0.069,0.000: // measure 1
0000
0000
0000
0000
,  // measure 2
0000
0000
0000
0000
,  // measure 3
0000
0000
0000
0000
,  // measure 4
0000
0000
0000
0000
,  // measure 5
1000
0100
0010
0001
,  // measure 6
0000
0000
0000
0000
,  // measure 7
0001
0010
0100
1000
,  // measure 8
0000
0000
0000
0000
,  // measure 9
1000
0010
0001
0001
,  // measure 10
0010
0100
1000
1000
,  // measure 11
0001
0100
1000
1000
,  // measure 12
0100
0001
0001
0001
,  // measure 13
0100
1000
0010
0010
,  // measure 14
0001
0100
0100
0100
,  // measure 15
0010
0001
0100
0100
,  // measure 16
1000
0010
0010
0010
,  // measure 17
1000
0001
1000
1000
,  // measure 18
0100
0001
0001
0001
,  // measure 19
0100
1000
0010
0010
,  // measure 20
0001
0100
0100
0100
,  // measure 21
1000
0010
0100
0100
,  // measure 22
0010
0001
0001
0001
,  // measure 23
1000
0100
0010
0010
,  // measure 24
0100
1000
1000
1000
,  // measure 25
2002
0000
3003
0000
,  // measure 26
1000
1000
1000
0000
,  // measure 27
0001
0001
0001
0000
,  // measure 28
0010
0010
0010
0000
,  // measure 29
0100
0100
0100
0000
,  // measure 30
0001
0001
0001
0000
,  // measure 31
1000
1000
1000
0000
,  // measure 32
0220
0000
0000
0000
0000
0000
0000
0330
,  // measure 33
0000
0001
0000
0010
,  // measure 34
0000
1000
0000
0100
,  // measure 35
0000
0010
0000
0001
,  // measure 36
0000
0010
0000
0100
,  // measure 37
0000
1000
0000
0010
,  // measure 38
0000
0100
0000
0001
,  // measure 39
0000
1000
0000
0010
,  // measure 40
0000
0100
0000
0001
,  // measure 41
0000
0010
0000
0100
,  // measure 42
0000
1000
0000
0100
,  // measure 43
0000
0010
0000
0001
,  // measure 44
0000
0100
0000
0010
,  // measure 45
0000
1000
0000
0010
,  // measure 46
0000
0100
0000
0001
,  // measure 47
0000
1000
0000
0010
,  // measure 48
0000
0100
0000
0001
,  // measure 49
2200
0000
0000
3300
,  // measure 50
0000
0000
0000
0000
,  // measure 51
0001
0010
1000
0100
,  // measure 52
0001
0100
0100
0100
,  // measure 53
0001
0001
0001
0001
,  // measure 54
0001
1000
0001
1000
,  // measure 55
0001
1000
0100
0010
,  // measure 56
0100
0110
1001
0110
,  // measure 57
1000
0010
0001
0001
,  // measure 58
0010
0100
1000
1000
,  // measure 59
0001
0100
1000
1000
,  // measure 60
0100
0001
0001
0001
,  // measure 61
0100
1000
0010
0010
,  // measure 62
0001
0100
0100
0100
,  // measure 63
0010
0001
0100
0100
,  // measure 64
1000
0010
0010
0010
,  // measure 65
1000
0001
1000
1000
,  // measure 66
0100
0001
0001
0001
,  // measure 67
0100
1000
0010
0010
,  // measure 68
0001
0100
0100
0100
,  // measure 69
1000
0010
0100
0100
,  // measure 70
0010
0001
0001
0001
,  // measure 71
1000
0100
0010
0010
,  // measure 72
0100
1000
1000
1000
,  // measure 73
0001
0001
0001
0001
,  // measure 74
0001
0010
0100
1000
,  // measure 75
1000
1000
1000
1000
,  // measure 76
1000
0100
0010
0001
,  // measure 77
0010
0010
0010
0010
,  // measure 78
0010
0100
0010
0100
,  // measure 79
0100
0100
0100
0100
,  // measure 80
1000
0001
1000
0001
,  // measure 81
1000
0100
1000
0100
,  // measure 82
1000
0000
0000
0000
,  // measure 83
0001
0010
0001
0010
,  // measure 84
0001
0000
0000
0000
,  // measure 85
2002
0000
0000
0000
,  // measure 86
3003
0000
0000
0000
;

//---------------dance-single - ----------------
#NOTES:
     dance-single:
     :
     Medium:
     6:
     0.394,0.439,0.034,0.026,0.000:
0000
0000
0000
0000
,
0000
0000
0000
0000
,
0000
0000
0000
0000
,
0000
0000
0000
0000
,
1000
0100
0010
0001
,
0000
0000
0000
0000
,
0001
0010
0100
1000
,
0000
0000
0000
0000
,
1000
0000
0010
0001
0010
0000
1000
0100
,
1000
1000
1000
1000
,
0001
0000
1000
0010
1000
0000
0001
0100
,
0001
0001
0001
0001
,
0100
0000
0010
0100
0010
0000
0100
0010
,
0100
0100
0100
0100
,
0010
0000
0001
1000
0001
0000
1000
0001
,
1000
0010
0010
0010
,
1000
0000
1000
0100
0010
0000
0001
0010
,
0100
1000
0100
0001
,
0001
0000
0001
0010
0100
0000
1000
0100
,
0010
0010
0010
0010
,
0100
0000
0001
1000
0001
0000
0100
0010
,
0100
1000
0001
1000
,
0010
0000
0010
0100
0010
0000
1000
0001
,
1000
0100
0010
0100
,
0200
0000
0300
0000
,
1000
1000
1000
0000
,
0001
0001
0001
0000
,
0010
0010
0010
0000
,
0100
0100
0100
0000
,
1000
1000
1000
0000
,
0001
0001
0001
0000
,
0010
0010
0010
0100
,
0100
1000
0001
1000
,
0100
0100
0100
0100
,
0010
0100
0010
0100
,
0010
0010
0010
0010
,
1000
0100
1000
0100
,
1000
1000
1000
1000
,
0001
0010
0001
0010
,
0001
0001
0001
0001
,
1000
0000
0000
0010
0000
0000
0001
0000
,
0100
0010
1000
0100
,
0001
0000
0000
0100
0000
0000
1000
0000
,
0010
0100
0001
0010
,
0100
0000
0000
0010
0000
0000
1000
0000
,
0010
1000
0100
0001
,
0010
0000
0000
0100
0000
0000
0001
0000
,
0010
0001
0100
1000
,
0000
0000
0000
0000
,
0000
0000
0000
0000
0000
0000
0000
0010
,
0001
0000
0001
0000
0001
0000
1000
0100
,
1000
1000
1000
1000
,
0100
0001
0100
0000
0100
0000
0100
0000
,
0001
1000
0001
1000
,
0001
0100
0010
0100
,
0010
0110
1001
0110
,
1000
0000
0001
0010
0001
0000
1000
0100
,
1000
1000
1000
1000
,
0001
0000
1000
0010
1000
0000
0001
0100
,
0001
0001
0001
0001
,
0100
0000
0100
0010
1000
0000
0100
0010
,
0001
0100
0100
0100
,
0010
0000
0010
0001
0100
0000
0010
1000
,
0100
0010
0010
0010
,
1000
0000
1000
0010
0100
0000
0001
0100
,
0010
0001
0001
0001
,
0001
0000
0001
0010
0100
0000
1000
0100
,
0010
1000
1000
1000
,
0100
0000
0000
0010
0000
0000
0100
0000
,
0001
0100
1000
0100
,
0010
0000
0000
0100
0000
0000
0010
0000
,
0001
0010
1000
0010
,
0001
0001
0001
0001
,
0001
0010
0100
1000
,
1000
1000
1000
1000
,
1000
0100
0010
0001
,
0100
0100
0100
0100
,
0010
0100
0010
0100
,
0010
0010
0010
0010
,
0100
0100
0100
0100
,
1000
0001
1000
0001
,
0000
0000
0000
0000
,
0001
1000
0001
1000
,
0000
0000
0000
0000
,
0220
0000
0000
0000
,
0330
0000
0000
0000
;

//---------------dance-single - ----------------
#NOTES:
     dance-single:
     :
     Hard:
     7:
     0.469,0.513,0.095,0.052,0.000:
0000
0000
0000
0000
,
0000
0000
0000
0000
,
0000
0000
0000
0000
,
0000
0000
0000
0000
,
1000
0100
0010
0001
0010
0100
1000
0000
,
0000
0000
0000
0000
,
0001
0010
0100
1000
0100
0010
0001
0000
,
1000
0001
1000
0001
,
1000
0000
0010
0100
0001
0010
1000
0000
,
0001
1000
0100
0010
,
0001
0000
1000
0100
0001
0010
1000
0000
,
0001
1000
0010
0100
,
0010
0000
0100
0010
1000
0001
0100
0000
,
0010
0100
0001
1000
,
0100
0000
0010
0100
0001
1000
0010
0000
,
1000
0001
1000
0001
,
0001
0000
1000
0100
0010
0100
1000
0000
,
1000
0001
0010
0100
,
1000
0000
0001
0010
0100
0010
0001
0000
,
1000
0001
0100
0010
,
0100
0000
1000
0100
0010
0001
0100
0000
,
0010
0001
1000
0100
,
0010
0000
0001
0010
0100
1000
0100
0000
,
0100
0010
0100
0010
,
0200
0000
0300
0000
,
1000
1000
1000
0000
1000
0000
1000
0000
,
0001
0001
0001
0000
0001
0000
0001
0000
,
0100
0100
0100
0000
0100
0000
0100
0000
,
0010
0001
0010
0000
0001
0000
0001
0000
,
1000
0100
1000
0000
1000
0000
1000
0000
,
1000
0001
1000
0000
0100
0000
0100
0000
,
0020
0000
0000
0000
0000
0000
0000
0030
,
1000
0000
1000
0001
0100
0010
0001
0000
,
0001
0010
0100
1000
,
1000
0000
0001
1000
0010
0100
1000
0000
,
0001
0100
0010
1000
,
0100
0000
0010
0001
0100
1000
0010
0000
,
0010
0100
1000
0001
,
0010
0000
0100
0001
0010
1000
0100
0000
,
0100
0010
0001
1000
,
1000
0000
0000
0001
0000
0000
0100
0000
,
0010
1000
0100
0010
,
0100
0000
0000
0010
0000
0000
0001
0000
,
0100
0010
1000
0100
,
1100
0000
0000
0011
0000
0000
0101
0000
,
0001
1000
0010
0100
,
0011
0000
0000
1100
0000
0000
1010
0000
,
0001
1000
0100
0010
,
0220
0000
0330
0000
,
0000
0000
0000
0000
0000
0000
0000
0001
,
0010
0000
0010
0000
0010
0000
0100
1000
,
0100
0100
0100
0100
,
0100
0001
0100
0000
1000
0000
0010
1000
,
0010
0001
1000
0001
,
1000
0001
0100
0010
,
0100
0110
1001
0110
,
1000
0000
0100
0010
0001
0010
0100
0000
,
0010
1000
0100
0001
,
0001
0000
0010
0100
1000
0100
0010
0000
,
0100
0001
0010
1000
,
1000
0000
0100
0010
0001
1000
0100
0000
,
0001
0100
0001
0100
,
0001
0000
0010
1000
0100
0001
0010
0000
,
1000
0100
1000
0100
,
1000
0000
0010
0001
0010
0100
1000
0000
,
1000
0100
0010
0001
,
1000
0000
0010
1000
0100
0010
0001
0000
,
0001
0010
0100
1000
,
0100
0000
0001
0100
0010
1000
0001
0000
,
0001
0100
0010
1000
,
0010
0000
1000
0010
0100
0001
1000
0000
,
1000
0010
0100
0001
,
1000
1000
1000
1000
,
1000
0100
0010
0001
,
0001
0001
0001
0001
,
0001
0010
0100
1000
,
0100
0100
0100
0100
,
0010
0100
0010
0100
,
0010
0010
0010
0010
,
0001
1000
0001
1000
,
0001
0010
0001
0010
0001
0010
0001
0010
,
0001
0100
0100
0100
,
1000
0100
1000
0100
1000
0100
1000
0100
,
1000
0010
0010
0010
,
0220
0000
0000
0000
,
0330
0000
0000
0000
;
