#TITLE:CaramellDansen(?!);
#SUBTITLE:(Speedycake Remix);
#ARTIST:Caramell;
#TITLETRANSLIT:;
#SUBTITLETRANSLIT:;
#ARTISTTRANSLIT:;
#GENRE:;
#CREDIT:Timer Rabbit;
#MENUCOLOR:;
#NEWMETERSYSTEM:NO;
#BANNER:caramell_bn.PNG;
#BACKGROUND:caramell_bg.png;
#LYRICSPATH:;
#CDTITLE:timerrabbit.png;
#MUSIC:caramell.mp3;
#OFFSET:0.000;
#SAMPLESTART:51.400;
#SAMPLELENGTH:11.980;
#SELECTABLE:YES;
#LISTSORT:;
#BPMS:0.000=164.731;
#STOPS:;
#BGCHANGES:0.000=BGA.AVI=1.000=1=1=0,
99999=-nosongbg-=1.000=0=0=0 // don't automatically add -songbackground-
;
#ATTACKS:;

//---------------dance-single - ----------------
#NOTES:
     dance-single:
     :
     Challenge:
     10:
     0.745,0.715,1.000,0.540,0.078: // measure 1
2000
0000
0000
0000
0000
3000
0100
0100
,  // measure 2
0100
0000
0000
0000
0011
0000
0000
0101
0000
0000
1100
0000
0000
0000
1000
0000
,  // measure 3
0100
1000
0000
0000
0000
0000
0100
0100
,  // measure 4
0100
0000
0000
0000
1010
0000
0000
1100
0000
0000
0101
0000
0000
0000
0001
0000
,  // measure 5
0100
0001
0000
0000
0000
0000
0010
0010
,  // measure 6
0010
0000
0000
0000
0110
0000
0000
1001
0000
0000
0101
0000
0000
0000
0001
0000
,  // measure 7
0100
0001
0000
0000
0000
0000
1000
1000
,  // measure 8
1000
0000
0000
0000
1100
0000
0000
0011
0000
0000
0110
0000
0000
0000
1000
0000
,  // measure 9
0001
2000
0000
0001
0000
0000
0000
3001
,  // measure 10
0000
0000
1000
1000
0001
0001
1000
1000
,  // measure 11
0001
0001
0100
0100
0010
0010
1000
0100
,  // measure 12
0010
0000
0100
0000
0101
0000
0000
1010
0000
0000
1100
0000
0000
0000
0100
0000
,  // measure 13
0100
0000
0100
0000
0110
0000
0000
1001
0000
0000
1100
0000
0000
0000
1000
0000
,  // measure 14
1000
0000
1000
0000
1100
0000
0000
0011
0000
0000
0101
0000
0000
0000
0010
0000
,  // measure 15
0010
0000
0010
0000
1010
0000
0000
0110
0000
0000
0101
0000
0001
0000
1000
0000
,  // measure 16
0001
0000
0000
0000
0010
0000
0000
0100
0000
0000
1000
0000
0000
0000
0100
0000
,  // measure 17
0100
0000
0100
0000
0010
0000
0000
0001
0000
0000
0100
0000
0000
0000
0010
0000
,  // measure 18
0010
0000
0010
0000
1000
0000
0000
0100
0000
0000
0001
0000
0000
0000
0001
0000
,  // measure 19
1000
0000
0001
0000
0100
0000
0000
0100
0000
0000
0100
0000
0110
0000
0110
0000
,  // measure 20
0110
0000
2010
0010
0010
3010
0102
0100
,  // measure 21
0100
0000
0103
0000
1000
0000
0000
0001
0000
0000
2000
0000
0000
0000
3000
0000
,  // measure 22
0000
0000
0102
0100
0100
0103
2010
0010
,  // measure 23
0010
0000
3010
0000
0001
0000
0000
1000
0000
0000
0002
0000
0000
0000
0003
0000
,  // measure 24
0000
0000
1100
0000
0011
0102
0100
0100
,  // measure 25
0100
0100
0100
0103
0000
0000
1010
0000
,  // measure 26
0101
0100
1010
1000
2200
0000
3300
0000
,  // measure 27
0000
0000
0101
0100
0202
0000
0303
0000
,  // measure 28
0000
0102
0100
0100
0103
2010
0010
0010
,  // measure 29
3010
2000
0000
3002
0000
2003
0000
3000
,  // measure 30
0000
2100
0100
0100
3100
0012
0010
0010
,  // measure 31
0013
0200
0000
0320
0000
0230
0000
0300
,  // measure 32
0000
0000
0101
0000
1010
2100
0000
0100
,  // measure 33
0000
3100
0000
0000
0100
0010
0000
0001
,  // measure 34
1000
0001
1000
0002
0000
0000
0003
0000
,  // measure 35
0000
1100
0101
0110
,  // measure 36
1001
0000
2100
0100
3100
0102
0100
0103
,  // measure 37
0000
1000
0100
1000
0010
0001
0011
0000
,  // measure 38
1100
0000
0102
0100
0103
2010
0010
3010
,  // measure 39
1000
0100
2000
0000
3100
0010
0011
0000
,  // measure 40
0101
0110
1100
0101
,  // measure 41
0000
2001
0100
0001
0100
3002
0100
1000
,  // measure 42
0100
1003
1100
0000
0011
0000
0101
0000
,  // measure 43
1000
0001
1001
0000
0110
0000
1001
0000
,  // measure 44
0110
0000
1100
0000
1100
0000
1100
0011
,  // measure 45
0000
0101
0000
0001
0000
1000
0000
1001
,  // measure 46
1001
0000
0101
0000
0101
0000
0101
1010
,  // measure 47
0000
1100
0000
0220
0000
0000
0000
0330
,  // measure 48
0000
0000
0101
0000
0101
0000
0101
1010
,  // measure 49
0000
1100
0000
1000
0000
0001
0000
1001
,  // measure 50
1001
0000
1100
0000
0011
0000
0110
1100
,  // measure 51
0000
0110
0000
2002
0000
0000
0000
3003
,  // measure 52
0000
0000
0102
0100
0100
0103
2010
0010
,  // measure 53
0010
0000
3010
0000
0001
0000
0000
0100
0000
0000
0020
0000
0000
0000
0030
0000
,  // measure 54
0000
0000
0012
0010
0010
0013
2100
0100
,  // measure 55
0100
0000
3100
0000
0010
0000
0000
0100
0000
0000
0020
0000
0000
0000
0030
0000
,  // measure 56
0000
0000
0110
0000
1001
2001
0001
0001
,  // measure 57
0001
0001
0001
3001
1000
0100
0010
0000
,  // measure 58
0001
0010
0100
0000
0101
0202
0000
0000
,  // measure 59
0303
0000
0000
1001
0000
0110
0000
1001
,  // measure 60
0000
2001
0001
0001
3001
1002
1000
1000
,  // measure 61
1003
0200
0000
0320
0000
0230
0000
0300
,  // measure 62
0000
2001
0001
0001
3001
1002
1000
1000
,  // measure 63
1003
2000
0000
3002
0000
2003
0000
3000
,  // measure 64
0000
0000
1100
0000
0101
0120
0000
0100
,  // measure 65
0000
0130
0000
0000
0010
1000
0000
0100
,  // measure 66
0010
0100
0010
0200
0000
0000
0300
0000
,  // measure 67
0000
0000
0110
1001
,  // measure 68
0110
0000
0102
0100
0103
2100
0100
3100
,  // measure 69
0000
0010
0100
0010
0100
0010
0110
0000
,  // measure 70
1001
0000
2100
0100
3100
0012
0010
0013
,  // measure 71
0001
0010
0002
0000
0103
0010
1010
0000
,  // measure 72
0101
0110
1001
0110
,  // measure 73
0000
0210
0010
0010
0310
0120
0100
0100
,  // measure 74
0100
0130
0110
0000
1001
0000
1100
0000
,  // measure 75
0100
0010
0110
0000
1001
0000
0110
0000
,  // measure 76
1001
0000
0000
0000
1000
0000
0000
0100
0000
0000
0010
0000
0000
0000
0001
0000
,  // measure 77
0001
0000
0001
0000
0100
0000
0000
0010
0000
0000
1000
0000
0000
0000
0100
0000
,  // measure 78
0100
0000
0100
0000
0001
0000
0000
0010
0000
0000
0100
0000
0000
0000
1000
0000
,  // measure 79
0100
0000
0010
0000
0001
0000
0000
0001
0000
0000
0001
0000
1001
0000
1001
0000
,  // measure 80
1001
0000
0000
0000
1100
0000
0000
0011
0000
0000
0110
0000
0000
0000
0100
0000
,  // measure 81
0100
0000
0100
0000
0110
0000
0000
1010
0000
0000
0101
0000
0000
0000
0001
0000
,  // measure 82
0001
0000
0001
0000
0101
0000
0000
1010
0000
0000
1100
0000
0000
0000
0010
0000
,  // measure 83
0010
0000
0010
0000
0110
0000
0000
1001
0000
0000
0110
0000
0100
0000
0010
0000
,  // measure 84
0100
2100
0000
0100
,  // measure 85
0000
0100
0000
3100
,  // measure 86
0012
0000
0010
0000
,  // measure 87
0010
0000
0013
1001
,  // measure 88
0110
2200
0000
0000
,  // measure 89
3300
0022
0000
0000
,  // measure 90
0033
0220
0000
0000
,  // measure 91
0330
2002
0000
0000
,  // measure 92
3003
0000
1001
1001
0000
0000
0000
0000
,  // measure 93
0000
0000
0110
0000
0000
0000
1001
0000
0000
0000
1000
0001
1000
0001
1000
0001
,  // measure 94
1000
0000
1100
0000
1100
0000
1100
0101
,  // measure 95
0000
0011
0000
1000
0000
0001
0000
1001
,  // measure 96
1001
0000
1100
0000
1100
0000
1100
0011
,  // measure 97
0000
0101
0000
2002
0000
0000
0000
3003
,  // measure 98
0000
0000
0110
0000
0110
0000
0110
1100
,  // measure 99
0000
0011
0000
0001
0000
1000
0000
1001
,  // measure 100
1001
0000
0110
0000
1100
0000
0101
0110
,  // measure 101
0000
1001
0000
0220
0000
0000
0000
0330
,  // measure 102
0000
0000
0102
0100
0103
2010
0010
3010
,  // measure 103
0000
0001
0100
0001
0010
0100
1100
0000
,  // measure 104
0011
0000
2100
0100
3100
0012
0010
0013
,  // measure 105
0001
0100
0002
0000
0103
0010
0110
0000
,  // measure 106
1001
1100
1001
0101
,  // measure 107
0000
2001
0100
0001
0100
3012
1000
0010
,  // measure 108
1000
0013
0110
0000
0101
0000
1010
0000
,  // measure 109
0001
1000
0110
0000
1001
0000
0110
0000
,  // measure 110
1001
0000
2100
0100
3100
0102
0100
0103
,  // measure 111
0000
1000
0100
1000
0010
0001
0011
0000
,  // measure 112
1100
0000
0102
0100
0103
2010
0010
3010
,  // measure 113
1000
0100
2000
0000
3100
0010
0011
0000
,  // measure 114
0101
0110
1100
0101
,  // measure 115
0000
2001
0100
0001
0100
3002
0100
1000
,  // measure 116
0100
1003
1100
0000
0011
0000
0101
0000
,  // measure 117
1000
0001
1001
0000
0110
0000
1001
0000
,  // measure 118
0110
2002
0000
0000
,  // measure 119
0000
0000
3003
0000
;
