#TITLE:April 6;
#SUBTITLE:(Step Remake MODIFIED);
#ARTIST:Solar*Core;
#TITLETRANSLIT:;
#SUBTITLETRANSLIT:;
#ARTISTTRANSLIT:;
#CREDIT:Timer Rabbit (song by Tomokosasaki~);
#BANNER:april6_bn.PNG;
#BACKGROUND:april6_bg.PNG;
#LYRICSPATH:;
#CDTITLE:timerrabbit.png;
#MUSIC:April 6.mp3;
#OFFSET:0.000;
#SAMPLESTART:35.294;
#SAMPLELENGTH:12.000;
#SELECTABLE:YES;
#BPMS:0.000=170.000;
#STOPS:;
#BGCHANGES:;

//---------------dance-single - ----------------
#NOTES:
     dance-single:
     :
     Hard:
     8:
     0.503,0.657,0.515,0.100,0.220: // measure 1
0000
0000
0000
0000
,  // measure 2
0000
0000
0000
0000
,  // measure 3
0000
0000
0000
0000
,  // measure 4
0000
0000
0000
0000
,  // measure 5
0000
0000
0000
0001
0000
1100
0000
1000
,  // measure 6
0000
0011
0000
0001
0000
1010
0000
1000
,  // measure 7
0000
0101
0000
0001
0000
1100
0000
1000
,  // measure 8
0000
0011
0000
0001
0000
1010
0000
1000
,  // measure 9
0000
0101
0000
0001
0000
1100
0000
1000
,  // measure 10
0000
0011
0000
0001
0000
1010
0000
1000
,  // measure 11
0000
0101
0000
0001
0000
1001
0000
0000
,  // measure 12
0000
0110
0000
0000
0000
1001
0000
1001
,  // measure 13
0000
1001
0000
2002
0000
0000
3003
0000
,  // measure 14
0000
0000
0000
0000
0000
0000
0000
1000
,  // measure 15
0100
1000
0100
1000
0100
1000
0000
1001
,  // measure 16
0000
0000
0000
0000
0000
0000
0000
0001
,  // measure 17
0010
0001
0010
0001
0010
0001
0010
0000
,  // measure 18
0110
0000
0000
0000
,  // measure 19
2010
0001
0010
0001
0010
0001
3010
0000
,  // measure 20
0102
1000
0100
1000
0100
1000
0103
0000
,  // measure 21
1000
0001
1000
0001
1000
0001
1000
0001
,  // measure 22
1001
0000
1000
0100
1000
0000
0001
0000
,  // measure 23
0000
0000
0001
0010
0001
0000
1000
0000
,  // measure 24
0000
0000
0001
0100
0001
0000
0100
0000
,  // measure 25
0000
0000
1000
0010
1000
0000
0010
0000
,  // measure 26
0000
0000
0000
0220
0000
0000
0000
0000
0000
0330
0000
0000
0000
0000
1000
0000
0000
0000
0000
0000
1000
0000
0000
0000
,  // measure 27
0000
0000
1000
0000
0000
0000
0000
0000
0000
0000
0000
0000
1000
0000
0000
0001
0000
0000
1000
0000
0000
0001
0000
0000
,  // measure 28
1000
0000
0000
0001
0000
0000
1000
0000
0000
0001
0000
0000
0000
0000
0000
0000
0001
0000
0000
0000
0000
0000
0001
0000
,  // measure 29
0000
0000
0000
0000
0001
0000
0000
0000
0000
0000
0000
0000
0000
0000
0000
1000
0000
0000
0001
0000
0000
1000
0000
0000
,  // measure 30
0001
1000
0001
1000
0001
0220
0000
0330
,  // measure 31
0000
1000
0000
0000
0000
1000
0000
0000
,  // measure 32
0000
0001
0000
0000
0000
0001
0000
0220
,  // measure 33
0330
0100
0000
0000
0000
0100
0000
0000
,  // measure 34
0000
0010
0000
0000
0000
0010
0000
0000
,  // measure 35
0000
0000
1001
0000
0000
0000
0101
0000
0000
0000
1100
0000
0000
0101
0000
1100
,  // measure 36
0000
0000
0000
0000
1010
0000
0000
0000
0011
0000
0000
1010
0000
0011
0000
0000
,  // measure 37
0000
0000
1000
0000
0000
0000
0001
0000
0000
0110
0000
1001
0000
0000
0000
0000
,  // measure 38
0000
1000
0001
1000
0001
1000
0001
1000
,  // measure 39
0001
1001
0000
0000
1010
0000
0001
0000
,  // measure 40
0101
1000
0011
0001
,  // measure 41
1100
1000
1010
0001
,  // measure 42
0101
1000
0011
0001
,  // measure 43
1100
0000
1000
0001
1000
0000
1010
0000
,  // measure 44
0001
0101
1000
0011
,  // measure 45
0001
1100
1000
1010
,  // measure 46
0001
0101
1000
0011
,  // measure 47
0001
0000
0000
1100
0000
1000
0001
1000
0001
0000
1000
0000
,  // measure 48
0000
0000
1000
0000
0000
0000
0000
0000
1000
0000
0000
0000
0000
0000
0000
0000
0000
0000
1000
0000
0000
0001
0000
0000
,  // measure 49
1000
0000
0000
0001
0000
0000
1000
0000
0000
0001
0000
0000
1000
0000
0000
0000
0000
0000
0000
0000
0001
0000
0000
0000
,  // measure 50
0000
0000
0001
0000
0000
0000
0000
0000
0001
0000
0000
0000
0000
0000
0000
0000
0000
0000
0010
0000
0000
0100
0000
0000
,  // measure 51
0010
0100
0010
0100
0010
0100
0010
0000
,  // measure 52
0000
0000
1000
0000
0000
0000
0000
0000
1000
0000
0000
0000
0000
0000
1000
0000
0000
0000
0000
0000
0000
0001
0000
0000
,  // measure 53
1000
0001
1000
0001
1000
0001
1000
0000
,  // measure 54
0000
0001
0000
0000
0001
0000
0000
0001
0000
0000
0000
0000
,  // measure 55
0010
0100
0010
0001
0100
1000
0100
0010
,  // measure 56
0001
0000
0000
0000
,  // measure 57
0000
0000
0000
0000
1000
0000
0000
1000
0000
0000
1000
0000
,  // measure 58
0000
0000
1000
0001
1000
0001
1000
0001
,  // measure 59
1000
0000
0000
0000
0001
0000
0000
0001
0000
0000
0001
0000
,  // measure 60
0000
0000
0010
0100
0010
0100
0010
0100
,  // measure 61
0010
0000
0000
1001
0000
0000
0000
1000
0000
0000
1000
0000
,  // measure 62
0000
0000
1000
0000
0000
0000
0000
0000
0000
0000
0000
0000
0001
0000
0000
1000
0000
0000
0001
0000
0000
1000
0000
0000
,  // measure 63
0001
0000
0000
1000
0000
0000
0001
0000
0000
0000
0000
0000
0000
0000
1000
0000
0000
0000
0000
0000
1000
0000
0000
0000
,  // measure 64
0000
0000
1000
0000
0000
0000
0000
0000
0000
0000
0000
0000
0010
0000
0000
0100
0000
0000
0010
0000
0000
0100
0000
0000
,  // measure 65
0010
0000
0000
0100
0000
0000
0000
0000
0000
0000
0000
0000
1001
0000
0000
0000
0000
0000
0000
0000
0000
0000
1000
0000
,  // measure 66
0000
0000
0001
0000
0000
1000
0000
0000
0001
0000
0000
1000
,  // measure 67
0000
0000
0001
0000
0000
0110
0000
0000
0000
0000
0000
0000
,  // measure 68
0010
0100
0010
0100
,  // measure 69
0010
0000
0100
0000
1001
0000
0000
1001
,  // measure 70
0000
0000
1000
0000
0000
0001
0000
0000
1000
0000
0000
0001
,  // measure 71
0000
0000
1000
0000
0000
0001
0000
0000
0110
0000
0000
0000
,  // measure 72
0000
0010
0100
0010
,  // measure 73
0100
0010
0100
1001
,  // measure 74
0000
0000
0000
1000
1000
1000
0000
0001
,  // measure 75
0001
0001
0000
0001
1000
0001
1000
0001
,  // measure 76
1000
0001
0000
0000
0100
0100
0100
0000
,  // measure 77
0010
0010
0010
0000
0010
0100
0010
0100
,  // measure 78
0010
0100
0010
0100
0000
1000
1000
1000
,  // measure 79
0000
0001
0001
0001
0000
1000
0100
1000
,  // measure 80
0100
1000
0100
1000
0000
0010
0010
0010
,  // measure 81
0000
0100
0100
0100
0000
0100
0010
0001
,  // measure 82
0100
1000
0010
0001
0100
1000
2002
0000
,  // measure 83
0000
0000
0000
0000
,  // measure 84
0000
3003
0000
0000
;

//---------------dance-single - ----------------
#NOTES:
     dance-single:
     :
     Medium:
     7:
     0.449,0.657,0.108,0.390,0.183:
0000
0000
0000
0000
,
0000
0000
0000
0000
,
0000
0000
0000
0000
,
0000
0000
0000
0000
,
0000
1000
0000
0000
0000
0001
0000
0000
,
0000
1000
0000
0000
0000
0001
0000
0000
,
0000
1000
0000
0000
0000
0100
0000
0000
,
0000
0010
0000
0000
0000
0100
0000
0000
,
0000
0010
0000
0000
0000
1000
0000
0000
,
0000
0001
0000
0000
0000
1000
0000
0000
,
0000
0001
0000
0000
0000
1000
0000
0000
,
0000
0001
0000
0000
0000
1000
0000
0100
,
0000
0010
0000
0001
0000
2002
0000
3003
,
0000
0000
0000
0000
0000
0000
0000
1000
,
1000
1000
0100
0001
0001
0001
0001
1001
,
0000
0000
0000
0000
0000
0000
0000
0001
,
0001
0001
0100
1000
1000
1000
1000
1001
,
0000
0000
0000
0000
,
0000
1000
1000
1000
0100
0001
0001
0001
,
0001
1001
0001
0001
0001
1001
1000
1000
,
1000
2000
3002
2003
3002
2003
3002
2003
,
3002
0003
0000
1000
0000
0000
0000
1000
,
0000
0000
0000
0001
0000
0000
0000
0001
,
0000
0000
0000
1000
0000
0000
0000
1000
,
0000
0000
0000
0001
0000
0000
0000
0001
,
0000
0000
0000
0000
0000
0000
0000
0100
0000
0000
0100
0000
,
0000
0000
0100
0000
0000
0000
0000
0000
0000
0000
0000
0000
0100
0000
0000
0010
0000
0000
0100
0000
0000
0010
0000
0000
,
0100
0000
0000
0010
0000
0000
0100
0000
0000
0010
0000
0000
0100
0000
0000
0000
0010
0000
0000
0000
0000
0000
0010
0000
,
0000
0000
0000
0000
0010
0000
0000
0000
0000
0000
0000
0000
0000
0000
0000
1000
0000
0000
0001
0000
0000
1000
0000
0000
,
0001
1000
0001
1000
0001
2002
0000
3003
,
0000
1000
0000
0000
0000
1000
0000
0000
,
0000
1000
0000
0000
0000
1000
0000
1001
,
0000
0001
0000
0000
0000
0001
0000
0000
,
0000
0001
0000
0000
0000
0001
0000
1001
,
0000
0000
1000
0100
1000
0100
0000
0000
,
0000
0001
0010
0001
0010
0000
0000
0000
,
1000
0010
1000
0010
0000
0000
0000
0001
,
0100
0001
0100
1000
0100
0010
0001
0100
,
1000
0000
0000
0001
0000
0000
0000
0001
,
0000
0000
0000
1000
0000
0000
0000
1000
,
0000
0000
0000
0010
0000
0000
0000
0010
,
0000
0000
0000
0100
0000
0000
0000
0100
,
0000
0010
0100
0010
0000
1000
0000
0000
,
0000
1000
0000
0000
0000
0001
0000
0000
,
0000
0001
0000
0000
0000
0100
0000
0000
,
0000
0100
0000
0000
0000
0010
0000
0000
,
0000
0000
0000
0010
0000
0000
0000
0000
0000
0000
0000
0000
0000
0000
0000
0000
0000
0000
0000
0000
0010
0000
0000
0000
,
0000
0000
0010
0000
0000
0000
0000
0000
0010
0000
0000
0000
0000
0000
0000
0000
0000
0000
0100
0000
0000
0010
0000
0000
,
0100
0000
0000
0010
0000
0000
0100
0000
0000
0010
0000
0000
0100
0000
0000
0010
0000
0000
0000
0000
0100
0000
0000
0000
,
0000
0000
0100
0000
0000
0000
0000
0000
0100
0000
0000
0000
0000
0000
0000
0000
0000
0000
1000
0000
0000
0001
0000
0000
,
1000
0001
1000
0001
1000
0001
1000
0000
,
0000
0000
1000
0000
0000
0000
0000
0000
1000
0000
0000
0000
0000
0000
1000
0000
0000
0000
0000
0000
0000
0100
0000
0000
,
0010
0100
0010
0100
0010
0100
0010
0000
,
0000
0001
0000
0000
0001
0000
0000
0001
0000
0000
0000
0000
,
0000
0010
0100
1000
0010
0001
0100
1000
,
0010
0001
0000
0000
0000
0000
0000
0000
,
0000
0000
0000
0000
1000
0000
0000
1000
0000
0000
1000
0000
,
0000
0000
1000
0010
1000
0010
1000
0010
,
1000
0000
0000
0010
0000
0000
0000
0000
0000
0000
0001
0000
0000
0000
0000
0000
0001
0000
0000
0000
0000
0000
0001
0000
,
0000
0000
0000
0010
0001
0010
0001
0010
,
0001
0000
0000
0010
0000
0000
0000
0000
0000
0000
0000
0000
0000
0000
1000
0000
0000
0000
0000
0000
1000
0000
0000
0000
,
0000
0000
1000
0000
0000
0000
0000
0000
0000
1000
0000
0000
0100
0000
0000
1000
0000
0000
0100
0000
0000
1000
0000
0000
,
0100
0000
0000
1000
0000
0000
0100
0000
0000
0000
0000
0000
0000
0000
0001
0000
0000
0000
0000
0000
0001
0000
0000
0000
,
0000
0000
0001
0000
0000
0000
0000
0000
0000
0001
0000
0000
0100
0000
0000
0001
0000
0000
0100
0000
0000
0001
0000
0000
,
0100
0000
0000
0001
0000
0000
0100
0000
0000
0000
0000
0000
0000
0000
0000
0000
0000
0000
0000
0000
0000
0000
2000
0000
,
0000
3000
0002
0000
0003
2000
0000
3000
0002
0000
0003
2000
,
0000
3000
0002
0000
0003
2002
0000
3003
0000
0000
0000
0000
,
0200
0000
0300
0020
0000
0030
0200
0000
0300
0020
0000
0030
,
0200
0000
0300
0020
0000
0030
0200
0000
0300
0220
0000
0330
,
0000
0000
0020
0000
0030
0002
0000
0003
0020
0000
0030
0002
,
0000
0003
0020
0000
0030
0002
0000
0003
0022
0000
0033
0000
,
0000
0000
0000
2000
0000
3000
0200
0000
0300
2000
0000
3000
,
0200
0000
0300
2000
0000
3000
0200
0000
0300
2200
0000
3300
,
0000
0000
0000
0001
0001
0001
0000
1000
,
1000
1000
0000
1000
0001
1000
0001
1000
,
0001
1000
0000
0000
0010
0010
0010
0000
,
0100
0100
0100
0000
0010
0100
0010
0100
,
0010
0100
0010
0100
0000
0001
0001
0001
,
0000
1000
1000
1000
0000
1000
0001
1000
,
0001
1000
0001
1000
0001
0000
0100
0100
,
0100
0000
0010
0010
0010
0000
0010
0001
,
0100
1000
0010
0001
0100
0000
0000
2002
,
0000
0000
0000
0000
,
0000
3003
0000
0000
;

//---------------dance-single - ----------------
#NOTES:
     dance-single:
     :
     Easy:
     4:
     0.275,0.346,0.233,0.282,0.133:
0000
0000
0000
0000
,
0000
0000
0000
0000
,
0000
0000
0000
0000
,
0000
0000
0000
0000
,
0000
1000
0000
0000
0000
1000
0000
0000
,
0000
0001
0000
0000
0000
0001
0000
0000
,
0000
0100
0000
0000
0000
0100
0000
0000
,
0000
0010
0000
0000
0000
0010
0000
0000
,
0000
1000
0000
0000
0000
1000
0000
0000
,
0000
0001
0000
0000
0000
0001
0000
0000
,
0000
0100
0000
0000
0000
0100
0000
0000
,
0000
0010
0000
0000
0000
0010
0000
0010
,
0000
0010
0000
0020
0000
0030
0000
0000
,
0000
0000
0000
0000
0000
0000
0000
2000
,
0000
0000
0000
0000
0000
0000
3000
1001
,
0000
0000
0000
0000
,
0002
0000
0000
0000
0000
0000
0000
0003
,
1001
0000
0000
0000
0000
0000
0000
2000
,
0000
0000
0000
0000
0000
0000
3000
1001
,
0000
0001
0000
0000
0000
1000
0000
0001
,
0000
1000
0000
0001
0000
1000
0000
2002
,
0000
0000
3003
0000
0000
1000
0000
0000
,
0000
0001
0000
0000
0000
1000
0000
0000
,
0000
0001
0000
0000
0000
1000
0000
0000
,
0000
0001
0000
0000
0000
1000
0000
0000
,
0000
0000
0000
0001
0000
0000
0000
0000
0000
1001
0000
0000
0000
0000
0100
0000
0000
0000
0000
0000
0100
0000
0000
0000
,
0000
0100
0000
0000
0000
0000
0220
0000
0000
0000
0000
0000
,
0000
0000
0000
0000
0000
0000
0330
0000
0000
0000
0010
0000
,
0000
0010
0000
0000
0010
0000
0000
0000
0000
2002
0000
0000
,
0000
0000
0000
0000
0000
3003
1001
0000
,
0000
1000
0000
0000
0000
1000
0000
0000
,
0000
1000
0000
0000
0000
1000
0000
1001
,
0000
0001
0000
0000
0000
0001
0000
0000
,
0000
0001
0000
0000
0000
0001
0000
1001
,
0000
1000
0000
1000
0000
1000
0000
0000
,
0000
0001
0000
0001
0000
0001
0000
0000
,
0000
1000
0000
1000
0000
1000
0000
0000
,
0000
0001
0000
0001
0000
0001
0000
0000
,
1001
0000
0000
1000
0000
0000
0000
1000
,
0000
0000
0000
0001
0000
0000
0000
0001
,
0000
0000
0000
0100
0000
0000
0000
0100
,
0000
0000
0000
0010
0000
0000
0000
0010
,
0000
0000
0000
1000
0000
0000
0000
1000
,
0000
0000
0000
0001
0000
0000
0000
0001
,
0000
0000
0000
0100
0000
0000
0000
0100
,
0000
0000
0000
0010
0000
0000
0000
0010
,
0000
0000
0000
0000
0000
0000
0000
0000
0000
0010
0000
0000
0000
0000
0000
0000
0000
0000
0000
0000
1000
0000
0000
0000
,
0000
1000
0000
0000
1000
0000
0000
0000
0000
2002
0000
0000
,
0000
0000
0000
0000
0000
0000
0000
0000
0000
0000
0000
0000
0000
0000
0000
3003
0000
0000
0000
0000
0001
0000
0000
0000
,
0000
0001
0000
0000
0001
0000
0000
0000
0000
0220
0000
0000
,
0000
0000
0000
0330
,
0000
0100
0000
0000
0100
0000
0000
0100
0000
0000
0000
0000
,
2002
0000
0000
0000
0000
0000
0000
3003
,
0000
0010
0000
0000
0010
0000
0000
0010
0000
0000
0000
0000
,
0220
0000
0000
0000
,
0000
0330
0000
0000
0000
0000
0000
0000
,
0000
0000
0000
0000
0001
0000
0000
0001
0000
0000
0001
0000
,
0000
2200
0000
0000
,
0000
0000
0000
0000
0000
0000
0000
0000
0000
3300
0000
0000
0000
0000
1000
0000
0000
0000
0000
0000
1000
0000
0000
0000
,
0000
1000
0000
0000
0000
0000
0022
0000
0000
0000
0000
0000
,
0000
0000
0000
0000
0000
0000
0000
0000
0000
0033
0000
0000
0000
0000
0100
0000
0000
0000
0000
0000
0100
0000
0000
0000
,
0000
0100
0000
0000
0000
0000
0220
0000
0000
0000
0000
0000
,
0000
0000
0000
0000
0000
0000
0000
0000
0000
0000
0000
0000
0000
0000
0000
0330
0000
0000
0000
0000
0010
0000
0000
0000
,
0000
0010
0000
0000
0010
0000
0000
0000
0000
2002
0000
0000
,
0000
0000
0000
0000
0000
0000
3003
1000
,
0000
0001
0000
1000
0000
0001
0000
1000
,
0000
0001
0000
1001
0000
0000
0000
0100
,
0000
0010
0000
0100
0000
0010
0000
0100
,
0000
0000
0000
0010
0000
0000
0000
0000
0000
0100
0000
0000
0000
0000
0000
0110
0000
0000
0000
0000
0000
0000
1001
0000
,
0000
1000
0000
0100
0000
1000
0000
0100
,
0000
1000
0000
0100
0000
1100
0000
0000
,
0000
0001
0000
0010
0000
0001
0000
0010
,
0000
0001
0000
0010
0000
0001
0000
0011
,
0000
0000
0000
1000
0000
0000
0000
0001
,
0000
0000
0000
2002
0000
0000
0000
0000
,
0000
3003
0001
0000
,
1000
0000
0220
0000
,
0000
0000
0000
0330
0000
0100
0000
0000
,
0000
0010
0000
0000
0000
2002
0000
0000
,
0000
0000
3003
1000
,
0000
0001
1000
0100
,
0010
0000
0000
0000
0000
0000
0000
0000
0000
0000
0000
0000
0000
0000
0000
0000
0000
0000
0000
0000
0000
0000
0000
0000
0000
0000
0000
0000
0000
0000
0000
0000
0000
0000
0000
0000
0000
0000
0000
0000
0000
0000
0000
0000
0000
0000
0000
0000
0001
0000
0000
0000
0000
0000
0000
0000
0000
0000
0000
0000
0000
0000
0000
0000
0000
0000
0000
0000
0000
0000
0000
0000
0000
0000
0000
0000
0000
0000
0000
0000
0000
0000
0000
0000
0000
0000
0000
0000
0000
0000
0000
0000
0000
0000
0000
0000
0100
0000
0000
0000
0000
0000
0000
0000
0000
0000
0000
0000
0000
0000
0000
0000
0000
0000
0000
0000
0000
0000
0000
0000
0000
0000
0000
0000
0000
0000
0000
0000
0000
0000
0000
0000
0000
0000
0000
0000
0000
0000
0000
0000
0000
0000
0000
0000
0000
0220
0000
0000
0000
0000
0000
0000
0000
0000
0000
0000
0000
0000
0000
0000
0000
0000
0000
0000
0000
0000
0000
0000
0000
0000
0000
0000
0000
0000
0000
0000
0000
0000
0000
0000
0000
0000
0000
0000
0000
0000
0000
0000
0000
0000
0000
0000
,
0000
0000
0000
0000
,
0000
0330
0000
0000
;
