#TITLE:Angel In the Night;
#SUBTITLE:;
#ARTIST:Basshunter;
#TITLETRANSLIT:;
#SUBTITLETRANSLIT:;
#ARTISTTRANSLIT:;
#CREDIT:Timer Rabbit;
#BANNER:angelinthenight_bn.png;
#BACKGROUND:angelinthenight_bg.png;
#LYRICSPATH:;
#CDTITLE:timerrabbit.png;
#MUSIC:1650928.mp3;
#OFFSET:0.000;
#SAMPLESTART:100.000;
#SAMPLELENGTH:12.000;
#SELECTABLE:YES;
#BPMS:0.000=140.000,40.000=70.000,42.000=140.001,178.000=35.000,180.000=140.001,382.000=70.001,384.000=140.001;
#STOPS:0.000=0.200
,316.000=0.840
;
#BGCHANGES:0.000=heart6.avi=1.000=0=0=1,
24.000=red flames.avi=1.000=0=0=1,
40.000=red flames.avi=0.700=1=0=1,
42.000=Wheel4.avi=1.200=1=0=1,
74.000=purple swirls.avi=1.000=0=0=1,
106.000=light6.avi=0.000=1=0=1,
114.000=light6.avi=0.400=0=0=1,
146.000=allenrena.avi=1.000=0=0=1,
154.000=heart6.avi=1.000=0=0=1,
162.000=allenrena.avi=1.000=0=0=1,
166.000=heart6.avi=1.000=0=0=1,
170.000=allenrena.avi=1.000=0=0=1,
172.000=heart6.avi=1.000=0=0=1,
174.000=allenrena.avi=1.000=0=0=1,
174.500=heart6.avi=1.000=0=0=1,
175.000=allenrena.avi=1.000=0=0=1,
175.500=heart6.avi=1.000=0=0=1,
176.000=allenrena.avi=1.000=0=0=1,
176.250=heart6.avi=1.000=0=0=1,
176.500=allenrena.avi=1.000=0=0=1,
176.750=heart6.avi=1.000=0=0=1,
177.000=allenrena.avi=1.000=0=0=1,
177.125=heart6.avi=1.000=0=0=1,
177.250=heart6.avi=1.000=0=0=1,
177.375=heart6.avi=1.000=0=0=1,
177.500=allenrena.avi=1.000=0=0=1,
177.625=heart6.avi=1.000=0=0=1,
177.750=allenrena.avi=1.000=0=0=1,
177.875=heart6.avi=1.000=0=0=1,
178.000=allenrena.avi=1.000=0=0=1,
180.063=heart6.avi=1.000=0=0=1,
180.063=allenrena.avi=1.000=0=0=1,
180.333=watery.avi=1.000=0=0=1,
180.667=watery.avi=1.000=0=0=1,
181.000=watery.avi=1.800=0=0=1,
212.000=purple stars.avi=1.800=0=0=1,
244.000=light6.avi=0.300=0=0=1,
252.000=Wheel4.avi=1.200=0=0=1,
283.938=angelinthenight_bg.png=1.000=0=0=1,
284.000=Wheel4.avi=1.200=1=0=1,
291.938=angelinthenight_bg.png=1.200=0=0=1,
292.000=Wheel4.avi=1.200=1=0=1,
299.938=angelinthenight_bg.png=1.000=0=0=1,
300.000=Wheel4.avi=1.200=1=0=1,
303.938=angelinthenight_bg.png=1.000=0=0=1,
304.000=Wheel4.avi=1.200=1=0=1,
307.938=angelinthenight_bg.png=1.000=0=0=1,
308.000=Wheel4.avi=1.200=1=0=1,
309.438=angelinthenight_bg.png=1.000=0=0=1,
309.563=Wheel4.avi=1.400=1=0=1,
310.438=angelinthenight_bg.png=1.000=0=0=1,
310.500=Wheel4.avi=1.400=1=0=1,
311.438=angelinthenight_bg.png=1.000=0=0=1,
311.500=Wheel4.avi=1.400=1=0=1,
312.000=heart6.avi=1.000=0=0=1,
313.000=allenrena.avi=1.000=0=0=1,
314.000=heart6.avi=1.000=0=0=1,
314.500=allenrena.avi=1.000=0=0=1,
315.000=heart6.avi=1.000=0=0=1,
315.500=allenrena.avi=1.000=0=0=1,
315.938=light6.avi=0.000=0=0=1,
318.000=light6.avi=1.600=0=0=1,
350.000=watery.avi=1.600=1=0=1,
382.000=light6.avi=0.300=0=0=1,
384.000=heart6.avi=1.000=1=0=1,
388.000=allenrena.avi=1.000=1=0=1,
392.000=heart6.avi=1.000=1=0=1,
396.000=allenrena.avi=1.000=1=0=1,
400.000=heart6.avi=1.000=1=0=1,
404.000=allenrena.avi=1.000=1=0=1,
408.000=heart6.avi=1.000=1=0=1,
412.000=allenrena.avi=1.000=1=0=1,
416.000=light6.avi=2.000=1=0=1,
447.500=angelinthenight_bg.png=0.600=1=0=1,
99999=-nosongbg-=1.000=0=0=0 // don't automatically add -songbackground-
;

//---------------dance-single - ----------------
#NOTES:
     dance-single:
     :
     Challenge:
     9:
     0.540,0.721,0.600,0.497,0.116: // measure 1
0000
0000
0000
0000
,  // measure 2
0000
0000
0000
0000
,  // measure 3
0000
0011
1100
0000
,  // measure 4
0000
0000
0100
0020
0000
0031
0100
1000
,  // measure 5
0000
1010
0101
0000
,  // measure 6
1000
0200
0000
0310
0000
0001
0000
0100
,  // measure 7
0000
0000
0000
0000
0000
1001
0000
0000
2100
0000
0000
0000
0010
0000
0000
0000
,  // measure 8
0001
0000
3100
0010
0000
0000
0000
0000
,  // measure 9
2000
0000
3100
0002
0000
0000
0013
0000
,  // measure 10
1100
0011
0101
0110
,  // measure 11
2002
0000
0000
0000
3003
0000
0100
0010
,  // measure 12
1000
0100
0010
0001
0100
0010
1000
0100
,  // measure 13
0010
0001
0010
0220
0000
0330
0000
0000
,  // measure 14
0001
0010
0100
1000
0100
0010
0001
0100
,  // measure 15
0010
1000
0001
2002
0000
3003
0000
0000
,  // measure 16
1100
0000
0101
0000
0001
1000
0000
0110
,  // measure 17
0000
1001
0000
0110
0000
0000
0000
0000
,  // measure 18
2100
0100
3100
0101
,  // measure 19
1001
0000
0110
0000
1001
0000
1000
0100
,  // measure 20
0010
0000
0010
0100
0001
0000
0001
0100
,  // measure 21
0010
0000
1000
0002
0000
0003
0000
0000
,  // measure 22
0001
1000
0000
2002
0000
3003
0000
0000
,  // measure 23
0100
0010
0220
0000
0330
0000
0000
0000
,  // measure 24
0100
0010
0100
0010
0000
0000
0000
0000
,  // measure 25
0001
1000
0001
1000
0000
0000
0000
0000
,  // measure 26
1001
1100
0011
0101
,  // measure 27
0220
0000
0000
0330
2200
0000
0300
0000
,  // measure 28
0000
0000
0000
0000
,  // measure 29
0000
0000
3000
0000
0000
0000
0202
0303
,  // measure 30
2010
0000
0010
0000
3010
0000
2001
0100
,  // measure 31
0000
0001
0000
3001
0000
0000
2002
3003
,  // measure 32
0220
0000
0330
0000
2200
3000
0000
1000
,  // measure 33
0000
1000
0000
1300
0000
0000
0000
0000
,  // measure 34
1100
0000
0011
0000
0101
0000
0100
0220
,  // measure 35
0000
0330
0000
0000
2000
0000
3200
0000
,  // measure 36
0320
0000
0031
0020
0000
0030
0000
0110
,  // measure 37
0000
0000
1001
0000
0000
0000
0110
0000
0000
0000
0000
0000
0001
0100
0000
0000
,  // measure 38
0001
0100
0000
0000
0001
0100
0000
0000
0001
0100
0000
0000
0001
0100
0000
0000
,  // measure 39
1001
0000
0000
0000
0110
0000
0000
0000
1001
0000
0000
0000
1000
0100
0000
0000
,  // measure 40
1000
0100
0000
0000
1000
0100
0000
0000
1000
0100
0000
0000
1000
0100
0000
0000
,  // measure 41
1100
0000
0011
0000
0101
0000
1002
1000
,  // measure 42
1000
1000
1003
0000
2001
0001
0001
0001
,  // measure 43
3001
0000
0000
0000
0000
0000
0000
0000
1000
0001
1000
0001
1000
0001
1000
0001
,  // measure 44
1000
0001
1000
0001
1000
0001
1000
0001
1000
0001
1000
0001
1000
0001
1000
0000
,  // measure 45
2002
0000
3003
0000
,  // measure 46
0001
0100
0001
0000
0010
1000
0100
0000
,  // measure 47
0100
0010
0001
0000
0010
1000
0010
0000
,  // measure 48
0100
0010
1000
0000
0100
0010
0001
0000
,  // measure 49
0001
0100
0001
0000
1000
0100
1000
0000
,  // measure 50
2100
0100
3100
0000
0102
0100
0103
0000
,  // measure 51
0120
0100
0130
0000
2001
0001
3001
0000
,  // measure 52
1002
1000
1003
0000
0001
0010
0001
0000
,  // measure 53
1000
0100
1000
0000
0100
0010
0110
0000
,  // measure 54
0001
0100
0001
0000
1100
0000
1010
0000
,  // measure 55
1000
0010
1000
0000
0011
0000
0101
0000
,  // measure 56
0100
0001
0100
0000
0110
0000
1100
0000
,  // measure 57
1000
0100
1000
0000
0110
0000
0011
0000
,  // measure 58
0001
0010
0001
0000
0101
0000
1100
0000
,  // measure 59
1000
0010
1000
0000
1010
0000
0101
0000
,  // measure 60
0100
0001
0100
0000
0110
0000
1100
0000
,  // measure 61
1000
0100
1000
0000
0100
0010
0100
2002
,  // measure 62
0000
0003
0000
0000
,  // measure 63
0000
0000
0000
3000
,  // measure 64
0101
1001
1100
1001
,  // measure 65
0110
0000
0012
0000
2000
0000
3000
0103
,  // measure 66
0000
0000
0000
0000
2002
0000
3003
0100
,  // measure 67
0020
0030
1000
0001
0100
0020
0030
0220
,  // measure 68
0000
0330
0000
0000
0101
0000
1010
0000
,  // measure 69
0001
2000
0000
3200
0000
0320
0000
0032
,  // measure 70
0000
0003
0000
0000
0110
0000
1001
0000
,  // measure 71
0220
0000
0000
0330
0100
0010
0100
0000
,  // measure 72
0102
0100
0100
0103
,  // measure 73
2100
0100
0100
3100
,  // measure 74
0210
0010
0010
0310
,  // measure 75
1002
1000
1000
1003
,  // measure 76
1000
0001
1000
0001
1000
0001
1000
0001
1000
0001
1000
0001
1000
0001
1000
0001
,  // measure 77
1001
1000
0001
1000
0001
1000
0001
1000
0001
1000
0001
1000
0001
1000
0001
1000
,  // measure 78
1001
0000
0000
0000
0000
0000
0001
0000
0000
0000
1000
0000
0000
0000
0001
1000
,  // measure 79
0001
1000
0001
1000
0001
1000
0001
1000
0001
1000
0001
1000
0001
1000
0001
1000
,  // measure 80
0002
0000
0003
0000
0001
0100
0001
0100
,  // measure 81
0002
0000
0000
0000
0003
0000
0202
0003
,  // measure 82
0000
0001
0000
0301
0000
0000
1000
0100
,  // measure 83
1000
0100
2000
3000
0110
0000
0101
0000
,  // measure 84
1020
1030
1001
0000
,  // measure 85
2000
0000
3200
0000
0320
0000
0031
0100
,  // measure 86
0000
0000
1100
1100
,  // measure 87
0101
0000
0001
0200
0000
0300
0020
0030
,  // measure 88
2000
3200
0000
0310
0000
0000
0011
0000
,  // measure 89
2100
0100
0100
3100
0000
0000
0101
0000
,  // measure 90
1010
0000
1000
0100
1000
0000
1100
0000
,  // measure 91
0012
0010
0013
0000
1100
0000
0011
0000
,  // measure 92
0002
2003
3002
0003
,  // measure 93
1001
0000
0110
0000
2002
0000
3003
0001
,  // measure 94
1000
0000
0000
0000
1100
0000
0010
0002
,  // measure 95
0000
0003
0200
0320
0000
2030
0000
3002
,  // measure 96
0000
2000
0000
3003
,  // measure 97
1000
0100
1000
0000
0010
0100
0010
0000
,  // measure 98
0001
0100
0001
0000
0100
0010
0100
0000
,  // measure 99
1000
0100
1000
0000
0001
0010
0001
0000
,  // measure 100
1000
0100
1000
0000
0010
0001
0100
0000
,  // measure 101
0120
0100
0130
0000
0210
0010
0310
0000
,  // measure 102
0021
0001
0031
0000
2100
0100
3100
0000
,  // measure 103
2001
0001
3001
0000
0100
0100
0100
0000
,  // measure 104
0010
0010
0010
0000
1000
0001
1000
0001
,  // measure 105
1000
0000
0100
0010
0001
0100
0010
0010
,  // measure 106
0010
0001
1000
0100
0010
0100
0100
0100
,  // measure 107
1000
0010
0100
0001
1000
1000
1000
0001
,  // measure 108
0010
0001
0010
0001
0001
0001
1000
0010
,  // measure 109
1000
0010
0010
0010
0100
0001
0100
0001
,  // measure 110
0100
0001
0001
0001
0100
0010
0100
0010
,  // measure 111
1000
1000
1000
0000
1001
0000
0110
0000
,  // measure 112
2002
0000
0000
3003
1000
0001
1000
0000
,  // measure 113
0220
0000
0000
0330
;
