#TITLE:Always;
#SUBTITLE:(Boys R&B);
#ARTIST:Shoichiro Hirata feat.RayZY;
#TITLETRANSLIT:;
#SUBTITLETRANSLIT:;
#ARTISTTRANSLIT:;
#CREDIT:Timer Rabbit;
#BANNER:BoysR&B_bn.PNG;
#BACKGROUND:BoysR&B_bg.PNG;
#LYRICSPATH:;
#CDTITLE:timerrabbit.png;
#MUSIC:BoysR&B.mp3;
#OFFSET:0.000;
#SAMPLESTART:46.154;
#SAMPLELENGTH:12.000;
#SELECTABLE:YES;
#BPMS:0.000=130.000;
#STOPS:;
#BGCHANGES:;

//---------------dance-single - ----------------
#NOTES:
     dance-single:
     :
     Easy:
     3:
     0.148,0.209,0.017,0.223,0.000: // measure 1
0000
0000
0000
0000
,  // measure 2
0000
0000
0000
0000
,  // measure 3
0000
0000
0000
0000
,  // measure 4
0000
0000
0000
0000
,  // measure 5
0000
0000
0000
0000
,  // measure 6
0000
0000
0000
0000
,  // measure 7
0000
0000
0000
0000
,  // measure 8
0000
0000
0000
0000
,  // measure 9
0000
0000
0000
1000
,  // measure 10
0000
0000
0001
0000
,  // measure 11
1000
0000
0200
0300
,  // measure 12
0002
0003
2000
3000
,  // measure 13
0002
0003
0000
0001
,  // measure 14
0000
0000
0100
0000
,  // measure 15
0010
0000
2000
3000
,  // measure 16
0020
0030
0002
0000
,  // measure 17
0000
0003
0000
0000
0000
0000
0100
0000
,  // measure 18
0000
0000
0010
0000
,  // measure 19
1000
0000
0002
0003
,  // measure 20
2000
3000
0020
0030
,  // measure 21
0200
0000
0000
0300
0000
0000
1000
0000
,  // measure 22
0000
0000
0010
0000
,  // measure 23
0001
0000
0200
0300
,  // measure 24
0020
0030
2000
0000
,  // measure 25
0000
0000
0000
3000
0000
0000
0000
0001
,  // measure 26
0000
0001
0000
0001
0000
0000
0000
1000
,  // measure 27
0000
1000
0000
2000
0000
3000
0000
0100
,  // measure 28
0000
0000
0000
0010
0000
0000
0200
0000
,  // measure 29
0300
0020
0030
0000
,  // measure 30
0001
1000
0000
0000
,  // measure 31
1000
0001
0000
0100
,  // measure 32
0010
0100
0010
0100
,  // measure 33
0000
0001
1000
0002
,  // measure 34
0000
0000
0000
0000
0000
0003
0000
0000
,  // measure 35
0000
0000
0000
0000
0000
0200
0000
0000
,  // measure 36
0300
0000
0000
0002
,  // measure 37
0000
0003
0000
0000
1000
0000
0000
0000
,  // measure 38
1000
0000
1000
0000
,  // measure 39
1000
0001
1000
0000
,  // measure 40
0001
0000
0001
0000
,  // measure 41
0001
0000
0001
0000
,  // measure 42
0001
1000
0001
1000
,  // measure 43
0001
0000
1000
0000
0000
0000
0000
0020
,  // measure 44
0000
0030
0000
2000
,  // measure 45
0000
3000
0000
0000
0001
0000
0000
0000
,  // measure 46
0001
0000
0001
0100
,  // measure 47
1000
0000
1000
0001
,  // measure 48
0000
1000
0000
1000
,  // measure 49
0000
1000
0000
1000
,  // measure 50
0000
1000
0000
1000
,  // measure 51
0001
0100
0010
0220
,  // measure 52
0000
0000
0000
0000
0000
0330
0000
0000
,  // measure 53
0000
0100
0000
0000
0000
0000
0000
0000
,  // measure 54
0000
0001
0000
0000
0000
0000
0000
0000
,  // measure 55
0000
0010
0000
0000
0000
0000
0000
0000
,  // measure 56
0000
1000
0000
0000
0000
0000
0000
0000
,  // measure 57
0000
0100
0000
0000
0000
0000
0000
0000
,  // measure 58
0000
0001
0000
0000
0000
0000
0000
0000
,  // measure 59
0000
0010
0000
0000
0000
0000
2002
0000
,  // measure 60
0000
0000
0000
0000
,  // measure 61
0000
0000
0000
0000
0000
0000
0000
3003
;

//---------------dance-single - Copied from----------------
#NOTES:
     dance-single:
     Copied from:
     Medium:
     5:
     0.227,0.289,0.060,0.334,0.000:
0000
0000
0000
0000
,
0000
0000
0000
0000
,
0000
0000
0000
0000
,
0000
0000
0000
0000
,
0000
0000
0000
0000
,
0000
0000
0000
0000
,
0000
0000
0000
0000
,
0000
0000
0000
0000
,
0000
0000
0000
1000
,
1000
1000
0001
0001
,
0001
1000
0001
0000
0200
0000
0300
0000
,
0020
0030
0200
0300
,
1100
0000
0000
0010
,
0010
0010
0100
0100
,
0100
0010
0100
0000
0002
0000
0003
0000
,
0200
0300
2000
0000
,
0000
0000
3000
0001
,
0001
0000
0001
0000
1000
0000
1000
0001
,
1000
0000
0020
0030
,
0200
0300
0020
0030
,
0101
0000
0000
0100
,
0100
0000
0100
0000
0010
0000
0010
0100
,
0010
0000
2000
3000
,
0200
0300
0002
0000
,
0000
0000
0003
0000
0000
0000
0000
1000
,
0000
0100
0000
0001
0000
1000
0000
0010
,
0000
1000
0001
1000
0000
0000
0000
0100
,
0000
0020
0000
0030
0000
0000
0000
0010
,
0000
0200
0000
0000
0300
0000
0000
0001
,
0000
1000
0000
0001
1000
0000
0000
1000
,
0000
0001
0000
1000
0001
0000
0000
0002
,
0000
0003
0200
0000
0300
2000
0000
3000
,
0000
0020
0000
0000
0000
0000
0230
0000
,
0000
0000
0300
0000
,
0000
1000
1000
2000
,
3000
0001
0001
0002
,
0003
0001
0001
0100
,
1000
1000
2000
3002
,
2003
3001
0001
0002
,
0003
1000
0100
0002
,
0003
0000
0001
2000
0000
3000
0000
0000
,
0100
0100
0100
0010
,
0010
0010
0001
0001
,
0002
0003
1000
1000
,
2000
3000
1000
1000
,
0010
0001
0000
2000
0000
3000
0002
0000
,
0003
2000
0000
3000
0001
0002
0000
0000
,
0000
0003
1000
0000
0010
0000
0001
1000
,
0001
0200
0300
0020
,
0030
0200
0300
0110
,
1001
0101
2100
0000
,
0000
0000
0000
3000
0000
0000
0000
0000
,
0000
1000
0001
0000
0000
0000
0000
0000
,
0000
0001
1000
0000
0000
0000
0000
0000
,
0000
0100
0010
0000
0000
0000
0000
0000
,
0000
0010
0100
0000
0000
0000
0000
0000
,
0000
1000
0100
0000
0000
0000
0000
0000
,
0000
0001
0010
0000
0000
0000
0000
0000
,
0000
0010
1000
0000
0000
0000
2002
0000
,
0000
0000
0000
0000
,
0000
0000
0000
0000
,
0000
0000
0000
3003
0000
0000
0000
0000
;

//---------------dance-single - Copied from----------------
#NOTES:
     dance-single:
     Copied from:
     Hard:
     7:
     0.311,0.392,0.009,0.129,0.034:
0000
0000
0000
0000
,
0000
0000
0000
0000
,
0000
0000
0000
0000
,
0000
0000
0000
0000
,
0000
0000
0000
0000
,
0000
0000
0000
0000
,
0000
0000
0000
0000
,
0000
0000
0000
0000
,
0000
0000
0000
0000
0000
0000
0001
0100
,
0010
0001
0000
0000
1000
0100
0010
1000
,
0000
0100
0000
0000
0001
0010
0002
0000
,
1003
0100
1000
0100
0010
0100
0000
0010
,
0001
0010
0000
0000
0000
0000
1000
0010
,
0100
1000
0000
0000
0001
0010
0100
0001
,
0000
0100
0000
0001
1000
0100
1000
0100
,
0010
0001
0010
0001
2000
0000
0000
0000
,
0000
0000
0000
3000
0000
0000
0000
0010
,
0100
0010
0001
0000
0010
0100
0010
1000
,
0000
0100
0000
0000
1000
0010
1000
0001
,
1000
0001
0100
0010
1000
0010
0000
0100
,
1000
0100
0000
0000
0000
0000
0000
0100
,
0010
0001
0100
0000
0100
1000
0010
0100
,
0000
0001
0000
0000
1000
0010
0001
0010
,
0100
1000
0100
1000
0100
0002
0000
0000
,
0000
0000
0000
0000
0003
0000
0001
0100
,
0010
1000
0000
1000
0100
0010
0100
1000
,
0100
0010
0002
0003
0000
0001
0100
0001
,
1000
0100
1000
0000
0100
0010
0100
0010
,
0100
0000
0100
0100
0000
0000
0000
1000
,
0100
1000
0010
1000
0000
0000
0000
0001
,
0100
0000
0001
0000
0010
0000
0001
0000
0000
0000
0001
0000
0000
1000
0000
0000
,
0001
0000
0000
0100
0000
0000
1000
0000
0000
0100
0000
0000
0000
0000
0000
0000
,
0000
0001
1000
0100
0020
0000
0000
0000
,
0000
0000
0030
0000
,
0000
0000
1000
0000
1000
0000
1000
0010
,
1000
0000
0000
0001
0000
0001
0000
0001
,
0010
0001
0000
0000
0001
0100
1000
1000
,
1000
0100
0000
0010
0001
0020
0030
0001
,
0100
0001
0100
0100
0100
0000
0000
0000
,
0000
0000
0000
0000
1000
0000
0000
0100
0000
0000
1000
0000
0000
0000
0000
0000
,
0000
0000
0001
0000
0000
0010
0000
0000
0001
0000
0000
0010
0000
0000
0000
0000
,
0000
1000
0100
0001
0010
0001
0010
1000
,
0010
1000
1000
0000
0100
0000
0100
0000
,
0010
0100
0010
0000
0010
0000
0010
0000
,
0100
0000
0010
0000
0100
0000
0000
0000
0001
0000
0000
1000
0000
0000
0001
0000
,
0000
1000
0000
0000
0000
0000
0100
0000
0010
0000
0001
0000
1000
0000
0010
0000
,
0100
0010
0000
1000
0002
0000
0003
0000
,
0000
0001
0000
1000
0000
0001
1000
0100
,
0020
0000
0030
0000
0000
1000
0000
0100
,
0001
0100
0000
0000
0000
0002
0000
0203
,
0000
2300
0000
3020
0000
0032
0000
0003
,
0000
1000
0100
1000
0000
0001
0000
0001
,
0100
0001
0000
0000
0000
0000
0000
1000
,
0000
1000
0010
1000
0000
0000
0000
0001
,
0000
0001
0010
0001
0000
0000
0000
1000
,
0000
0100
1000
0100
0000
0000
0001
0000
,
0001
0100
0001
0000
0000
0100
0000
0001
,
1000
0001
0000
0000
0000
0000
0010
0000
,
0100
0010
0100
0000
0000
2002
0000
0000
,
0000
0000
0000
0000
,
0000
0000
0000
0000
,
3003
0000
0000
0000
;
