#TITLE:A Dreaming Girl;
#SUBTITLE:;
#ARTIST:dimitoricTiger from seoul;
#TITLETRANSLIT:;
#SUBTITLETRANSLIT:;
#ARTISTTRANSLIT:;
#CREDIT:Timer Rabbit;
#BANNER:kdance_bn.PNG;
#BACKGROUND:kdance_bg.PNG;
#LYRICSPATH:;
#CDTITLE:timerrabbit.png;
#MUSIC:kdance.mp3;
#OFFSET:0.000;
#SAMPLESTART:41.667;
#SAMPLELENGTH:12.000;
#SELECTABLE:YES;
#BPMS:0.000=144.000;
#STOPS:;
#BGCHANGES:;

//---------------dance-single - ----------------
#NOTES:
     dance-single:
     :
     Easy:
     2:
     0.192,0.203,0.009,0.097,0.000: // measure 1
0000
0000
0000
1000
,  // measure 2
0000
0000
0000
0002
,  // measure 3
1003
0000
0000
0100
,  // measure 4
0000
1000
0010
0001
,  // measure 5
0200
0300
0000
1000
,  // measure 6
0000
0001
0000
1000
,  // measure 7
0000
0001
0000
0100
,  // measure 8
0000
0010
0000
0100
,  // measure 9
0000
0010
0000
1000
,  // measure 10
0000
0100
0000
0001
,  // measure 11
0000
0010
0000
0200
,  // measure 12
0300
0010
0000
0001
,  // measure 13
0100
0010
0000
0001
,  // measure 14
0000
1000
0000
0010
,  // measure 15
0000
0100
0000
0002
,  // measure 16
0003
1000
0000
0010
,  // measure 17
0100
1000
0000
1000
,  // measure 18
0000
0100
0000
0020
,  // measure 19
0030
0000
0010
0000
,  // measure 20
0001
0000
0000
0100
,  // measure 21
0000
0000
1000
0010
,  // measure 22
0000
0000
0100
0000
,  // measure 23
0001
0000
0000
0010
,  // measure 24
0000
0000
0001
0000
,  // measure 25
1000
0000
1000
0001
,  // measure 26
0000
0001
0000
0001
,  // measure 27
0000
0001
0000
1000
,  // measure 28
0000
1000
0000
1000
,  // measure 29
0000
1000
0000
0010
,  // measure 30
0000
0010
0000
0010
,  // measure 31
0000
0010
0000
0100
,  // measure 32
0000
0100
0000
0100
,  // measure 33
0100
0100
0100
0001
,  // measure 34
0000
1000
0000
0100
,  // measure 35
0000
0010
0000
0001
,  // measure 36
0000
0100
0000
1000
,  // measure 37
0000
0010
0000
0100
,  // measure 38
0000
0010
0000
1000
,  // measure 39
0000
0100
0000
0001
,  // measure 40
0000
0000
1000
0000
0000
0001
0000
0001
,  // measure 41
0000
0001
0000
0001
0000
0000
1000
0000
,  // measure 42
0000
0000
0000
0010
,  // measure 43
0000
0000
0000
0200
,  // measure 44
0000
0300
0000
0001
,  // measure 45
0000
1000
0100
0000
,  // measure 46
0001
0001
0001
0000
,  // measure 47
1000
1000
1000
0000
,  // measure 48
0010
0010
0010
0000
,  // measure 49
0100
0100
0100
0001
,  // measure 50
0000
0000
0000
0000
,  // measure 51
0100
0000
0000
0020
,  // measure 52
0000
0030
0000
1000
,  // measure 53
0000
0010
0001
0000
,  // measure 54
0100
0100
0100
0000
,  // measure 55
0010
0010
0010
0000
,  // measure 56
1000
1000
1000
0000
,  // measure 57
0001
0001
0001
1000
,  // measure 58
0000
0100
0000
0010
,  // measure 59
0000
0001
0000
0200
,  // measure 60
0300
0010
0000
1000
,  // measure 61
1000
1000
0000
0001
,  // measure 62
0000
0010
0000
0100
,  // measure 63
0000
1000
0000
0002
,  // measure 64
0003
1000
0000
0100
,  // measure 65
0100
0100
0100
2002
,  // measure 66
0000
0000
3003
0000
;

//---------------dance-single - ----------------
#NOTES:
     dance-single:
     :
     Medium:
     4:
     0.354,0.436,0.212,0.230,0.000:
0000
0000
0000
1100
,
0000
0011
0000
0101
,
0000
1010
0000
0110
,
0000
1001
0000
0100
,
0010
0100
0010
0001
,
1000
0100
0010
0001
,
0100
0010
1000
0011
,
0011
1100
1100
0110
,
0110
1001
1001
0001
,
0001
0001
0000
1000
,
1000
0100
0010
0100
,
0100
0001
0001
0001
,
1000
0000
0001
1000
0001
0000
1000
0000
,
1000
1000
0000
0010
,
0010
0000
0100
0000
0100
0000
0010
0100
,
0010
0001
0001
0001
,
1000
0100
1000
0001
,
0100
1000
0010
1000
,
0002
0003
1000
0100
,
0010
0100
0100
0010
,
0001
0100
0010
1000
,
1000
1000
0001
0001
,
0001
0000
0100
0010
,
0100
0000
0001
1000
,
0001
0000
0000
1000
0100
0000
0001
0000
,
0100
0010
1000
0100
,
0001
1000
0010
0100
,
0110
0001
1001
0010
,
0110
1000
1001
0200
,
0310
2000
3001
0200
,
0310
0002
1003
0011
,
1100
1010
0101
0200
,
0320
0230
0320
1030
,
0000
0001
0000
0100
,
0000
0010
0000
1000
,
0000
0100
0000
0010
,
0000
0001
0000
0100
,
0000
0010
0000
1000
,
0000
0001
0000
2000
,
0000
0000
3002
0000
0003
0010
0000
0100
,
0000
0010
0000
0110
0000
0000
1000
0000
,
0100
0001
0100
1000
,
0100
0001
0001
0010
,
1000
0010
0001
0100
,
1000
0100
0010
0002
,
2003
3200
0320
0032
,
0203
2300
3010
0100
,
0001
0000
0010
1000
,
0100
0000
0001
0000
0100
1000
0001
0000
,
0010
1000
0010
0001
,
0010
1000
0100
0010
,
0001
1000
0100
0010
,
0001
0100
0010
2000
,
3002
0023
0230
2300
,
3002
0003
1000
0010
,
0100
0000
0100
0010
,
1000
0000
0100
0010
0000
0000
0001
0000
,
0010
0001
0000
1000
,
0100
1000
0010
1000
,
0100
0010
0100
0001
,
0001
0001
0001
1000
,
0100
1000
0000
0001
,
0010
0001
0100
0001
,
1000
0001
1000
0100
,
0100
0100
0100
0220
,
0000
0000
0000
0330
;

//---------------dance-single - Copied from----------------
#NOTES:
     dance-single:
     Copied from:
     Hard:
     8:
     0.516,0.494,0.416,0.310,0.049:
0000
0000
0000
1100
,
0000
0011
0000
0101
,
0000
1010
0000
1001
,
0000
0000
0110
0000
0000
0000
1000
0001
,
0010
0100
0001
1000
0001
0000
2000
0000
,
3010
0001
0200
0000
0310
1000
0002
0000
,
0013
0001
2000
0000
3100
0001
0020
0000
,
1030
0010
0200
0000
0310
0100
0002
0000
,
0013
0100
2000
0000
3000
0000
0010
0001
,
0010
0100
1000
0000
0000
1000
0100
0010
,
0000
0010
0001
0100
1000
0100
2000
0000
,
3000
0000
0000
0000
0001
0000
0010
0000
0100
0000
0010
0000
0001
0000
1000
0001
,
1000
0001
1000
0000
0100
0000
0010
0000
0001
0000
0000
0000
1000
0000
0100
0000
,
1000
0010
0001
0000
0000
0001
0010
0100
,
0000
0100
0010
0001
0100
1000
0002
0000
,
0003
0000
0000
0000
1000
0000
0100
0000
0010
0000
0001
0000
1000
0000
0100
0010
,
0100
0010
0100
0010
0100
0000
0001
0000
1000
0000
0000
0000
1000
0000
0100
0000
,
0010
0001
0010
0100
0000
0100
0000
0200
,
0000
0000
0300
0000
0001
0010
0100
0010
,
0001
0000
0001
0000
1000
0100
0010
0100
,
1000
0000
1000
0000
0110
0000
0000
0010
,
1000
0100
0000
0010
0001
0100
0000
1001
,
0110
0000
2000
3002
,
2003
3000
0200
0320
,
0230
0000
0300
0001
1000
0000
0001
0000
,
1100
1000
1010
0001
,
0011
1000
1100
0010
,
0110
0001
1001
0100
,
0110
1000
1001
0002
,
1003
0200
0310
2000
,
3001
0020
0130
0002
,
0103
2000
3010
1010
,
0101
0011
1100
0001
,
0010
1000
0100
0010
,
0001
0100
1100
0010
,
0001
0100
1000
0010
,
1000
0100
0011
0100
,
0010
1000
0010
0001
,
0100
1001
0000
0110
,
0000
0000
1010
0000
0000
0101
0000
0011
,
0000
0000
1010
0000
0000
0000
2200
0000
0000
3300
0000
0000
0010
0000
0001
0000
,
0100
0001
0010
0000
2000
0000
3200
0000
,
0000
0300
0000
0000
0010
1000
0100
0010
,
0002
0000
0003
0000
0100
0010
1000
0100
,
0020
0000
0030
0100
0010
0000
0011
0000
,
1100
1010
0101
0011
,
1100
0000
1010
0000
0101
0000
0001
1000
,
0100
0010
0100
0000
1000
0001
0010
0100
,
0020
0000
0030
0010
0100
0000
0100
1000
,
0010
1000
0100
0000
0001
0010
1000
0000
,
1000
0100
0000
0000
0001
0100
0010
1000
,
0200
0000
0300
0000
0010
0001
0100
0010
,
2000
0000
3000
0001
0010
0000
1100
0000
,
0011
0101
1010
1100
,
0011
0000
0101
0000
1010
0000
0100
0010
,
0001
1000
0010
0000
0001
1000
0100
0010
,
0200
0000
0300
0100
0010
0000
1000
0100
,
1000
0010
1000
0000
0000
0100
0010
0001
,
0000
0000
0001
0000
0010
0000
0100
0000
0000
0000
1000
0001
1000
0001
1000
0001
,
0000
0100
0010
1000
0000
0100
0010
0001
,
0100
0001
0100
0010
1000
0000
0001
0010
,
0001
0100
0010
0000
0000
0010
0100
1000
,
0000
0000
1000
0000
0100
0000
0001
0000
0000
0000
0100
0010
0100
0010
0100
0010
,
0000
1000
0001
0100
0000
0010
1000
0100
,
1000
0010
0001
0100
1000
0000
2002
0000
,
0000
0000
0000
3003
;
