#TITLE:Wonderland;
#SUBTITLE:;
#ARTIST:DJ Satomi;
#TITLETRANSLIT:;
#SUBTITLETRANSLIT:;
#ARTISTTRANSLIT:;
#GENRE:;
#CREDIT:348 with Timer Rabbit;
#MENUCOLOR:;
#METERTYPE:DDR;
#BANNER:wonderland_bn.png;
#BACKGROUND:wonderland_bg.png;
#LYRICSPATH:Wonderland.lrc;
#CDTITLE:cd.PNG;
#MUSIC:Wonderland.ogg;
#OFFSET:-2.850;
#SAMPLESTART:31.946;
#SAMPLELENGTH:15.000;
#SELECTABLE:YES;
#LISTSORT:;
#BPMS:0.000=156.653;
#STOPS:70.000=1.915
,135.000=1.149
,200.000=1.149
;
#BGCHANGES:4.000=wonderland1.AVI=1.000=1=0=1,
36.000=Tunnel9.avi=0.800=1=0=1,
69.500=white.PNG=1.000=0=0=1,
70.000=wonderland_bg.png=1.000=1=0=1,
71.000=wonderland2.AVI=1.000=1=0=1,
134.500=white.PNG=1.000=0=0=1,
135.000=wonderland5.png=1.000=1=0=1,
136.000=Grid.avi=1.000=1=0=1,
152.000=5.avi=1.000=0=0=1,
168.000=Tunnel10.avi=1.000=1=0=1,
184.000=Fireworks2R.avi=1.000=0=0=1,
199.500=white.PNG=1.000=0=0=1,
200.000=wonderland4.png=1.000=1=0=1,
201.000=Tunnel9.avi=1.000=1=0=1,
217.000=Light6.avi=1.000=0=0=1,
233.000=Tunnel10.avi=1.000=1=0=1,
249.000=5.avi=1.000=0=0=1,
265.000=Tunnel9.avi=1.000=0=0=1,
267.000=wonderland_black.png=1.000=1=0=1,
269.000=wonderland_bg.png=1.000=1=0=1,
99999=-nosongbg-=1.000=0=0=0 // don't automatically add -songbackground-
;
#ATTACKS:;

//---------------dance-single - ----------------
#NOTES:
     dance-single:
     :
     Hard:
     8:
     0.576,0.579,0.389,0.292,0.141: // measure 1
0000
0000
0000
0000
,  // measure 2
0002
0000
0103
0010
,  // measure 3
1000
0000
2000
3010
,  // measure 4
0001
0000
0002
1003
,  // measure 5
2000
3001
0100
0001
,  // measure 6
0010
0000
0002
0103
,  // measure 7
0010
0000
2000
3100
,  // measure 8
0010
0000
1001
0001
,  // measure 9
0110
1000
0100
0010
,  // measure 10
2000
0000
3001
0000
0100
0010
0100
0000
,  // measure 11
0002
0000
1003
0000
1000
0100
0010
0000
,  // measure 12
2000
0000
3100
0000
0010
0001
0100
0000
,  // measure 13
0200
0310
0110
1001
,  // measure 14
2000
0000
3001
0000
0100
0010
0100
0000
,  // measure 15
0002
0000
1003
0000
0100
0010
0001
0000
,  // measure 16
0020
0000
0130
0000
1000
0001
0001
0100
,  // measure 17
0100
0020
0000
0000
0000
0000
0000
0000
,  // measure 18
0000
0030
0000
0101
,  // measure 19
1010
0000
0010
1000
0100
0010
0001
0000
,  // measure 20
0110
0000
0001
0100
0010
1000
0100
0000
,  // measure 21
0110
0000
0102
0100
0103
0000
2001
0001
,  // measure 22
3001
0110
1001
0110
,  // measure 23
2000
0000
3100
0010
0001
0100
0010
0000
,  // measure 24
0002
0000
0103
0010
1000
0001
0100
0000
,  // measure 25
2100
3100
0120
0130
,  // measure 26
0010
1000
0001
0110
,  // measure 27
1001
0000
0001
1000
0100
0001
0100
0000
,  // measure 28
1010
0000
1000
0001
0100
0010
1000
0000
,  // measure 29
1100
0000
0201
0001
0301
0000
1020
1000
,  // measure 30
1030
1010
1001
0101
,  // measure 31
0002
0000
0013
1000
0100
0010
0001
0000
,  // measure 32
0200
0000
0310
0001
0100
1000
0100
0000
,  // measure 33
1000
0000
0000
0001
0000
0000
1000
0000
0000
0001
0000
0000
0220
0000
0000
0000
,  // measure 34
0000
0000
0330
1001
,  // measure 35
1000
0010
0001
0100
0010
1000
0100
0100
,  // measure 36
0100
0010
0001
1000
0100
0100
0100
0000
,  // measure 37
0001
0100
0000
0000
0100
0001
0000
0000
0001
0100
0000
0000
0010
0100
0000
0000
,  // measure 38
0100
0010
0000
0000
0010
0100
0000
0000
0001
0000
1000
0000
1000
0000
0000
0000
,  // measure 39
1000
0001
0001
0001
0100
0010
0100
0010
,  // measure 40
1000
1000
1000
0100
0010
0100
0001
1000
,  // measure 41
0101
0000
1010
0000
1000
0001
0100
0000
,  // measure 42
0110
0000
1001
0000
0100
0010
0100
0000
,  // measure 43
0001
0010
0100
1000
0100
0010
0001
0001
,  // measure 44
0001
0100
0010
1000
0100
0100
0100
0000
,  // measure 45
1000
0100
0000
0000
0100
1000
0000
0000
1000
0100
0000
0000
1000
0001
0000
0000
,  // measure 46
0001
1000
0000
0000
1000
0001
0000
0000
0100
0000
0010
0000
0010
0000
0000
0000
,  // measure 47
0001
0100
0100
0100
0010
1000
0001
0100
,  // measure 48
0010
0010
0010
0001
1000
0001
0100
0010
,  // measure 49
0110
0000
1100
0000
0001
1000
0100
0000
,  // measure 50
0110
0000
1001
0000
0010
0100
0010
0000
,  // measure 51
0110
0000
0001
0100
0001
0100
0010
1000
,  // measure 52
0001
0001
0001
0100
0001
1000
0010
0010
,  // measure 53
0010
0000
0000
0000
0010
0100
0000
0000
0100
0010
0000
0000
0010
0100
0000
0000
,  // measure 54
0010
1000
0000
0000
1000
0010
0000
0000
0010
1000
0000
0000
1000
0000
0001
0000
,  // measure 55
1000
0000
0200
0000
0010
1300
0100
0010
,  // measure 56
0001
1000
0002
0010
1003
0100
0001
1000
,  // measure 57
0001
1000
0110
0000
1001
0000
1000
0010
,  // measure 58
0100
0000
0101
0000
1010
0000
2000
0001
,  // measure 59
3100
0000
1000
0001
0010
1000
0001
0100
,  // measure 60
0010
0010
0010
1000
0001
0010
1000
1000
,  // measure 61
1000
0000
0000
0000
1000
0100
0000
0000
0100
1000
0000
0000
1000
0100
0000
0000
,  // measure 62
0100
1000
0000
0000
0100
0010
0000
0000
0010
0100
0000
0000
0001
0000
0100
0000
,  // measure 63
0001
0000
0020
0000
1030
0001
0010
0100
,  // measure 64
1000
0100
0020
0100
0031
0100
0010
0100
,  // measure 65
0010
0100
1001
0000
0110
0000
0001
0100
,  // measure 66
0010
0000
0000
0000
1010
0000
0000
0000
0101
0000
0000
0000
0001
1000
0000
0000
,  // measure 67
1000
0001
0000
0000
0001
1000
0000
0000
0100
0010
0000
0000
0010
0100
0000
0000
,  // measure 68
0100
0010
0000
0000
0220
0000
0000
0000
0000
0000
0000
0000
0000
0000
0000
0000
,  // measure 69
0000
0000
0000
0000
,  // measure 70
0330
0000
0000
0000
;

//---------------dance-single - ----------------
#NOTES:
     dance-single:
     :
     Easy:
     5:
     0.377,0.488,0.468,0.071,0.000:
0000
0000
0000
0000
,
1000
0000
0001
0100
,
0010
0000
1000
0100
,
0010
0000
0010
0001
,
0100
0110
1001
0110
,
1001
0000
0100
0010
,
0100
0000
1000
0001
,
1000
0000
0001
0100
,
0010
1000
0100
0010
,
1001
0000
0100
0100
,
0010
0000
0010
0010
,
1000
0000
1000
1000
,
0001
1000
0100
0010
,
0001
0000
0100
0010
,
1000
0000
1000
0100
,
0010
0000
0001
1000
,
0110
2002
0000
0000
,
0000
0000
3003
0001
,
0100
0010
1000
0100
,
0010
0001
0100
0010
,
0100
1000
1000
0001
,
0001
0100
0100
0110
,
0000
1000
0001
1000
,
0000
0100
0010
0100
,
0000
0001
0001
1000
,
1000
1001
0110
0100
,
0010
0001
0100
0010
,
1000
0001
0100
0010
,
1000
0001
0001
1000
,
1000
0010
0010
0110
,
0000
0001
0100
0001
,
0000
0010
1000
0010
,
0000
0100
0010
0220
,
0000
0000
0000
0330
,
0010
0001
0100
0110
,
0010
1000
0001
1001
,
0001
0001
0100
0100
,
0010
0010
1000
1000
,
1100
0010
0001
0100
,
1010
1000
0100
0010
,
0110
1001
0110
0100
,
0100
1001
1001
0110
,
0010
1000
0001
1001
,
1000
0001
0010
0110
,
1000
1000
0001
0001
,
0100
0100
0010
0010
,
0011
0100
0010
1000
,
1100
0100
0001
0010
,
1001
0110
1001
0010
,
0010
0110
0110
2002
,
3003
1000
0001
1000
,
0110
0100
0010
0100
,
0110
0100
0100
0010
,
0010
0001
0001
1000
,
1000
1001
0100
0010
,
0001
0101
0100
0010
,
1000
1001
0110
1001
,
0001
0001
0110
1001
,
0110
0100
0010
0100
,
0101
0100
0010
1000
,
1100
0100
0010
0001
,
0001
1000
1000
0100
,
0100
0101
0100
0010
,
1000
1010
0100
0010
,
0001
0011
0110
1100
,
0100
0100
1001
0110
,
1001
1000
1000
1000
,
0001
2002
0000
0000
,
0000
0000
0000
0000
,
3003
0000
0000
0000
;

//---------------dance-single - ----------------
#NOTES:
     dance-single:
     :
     Beginner:
     2:
     0.141,0.178,0.000,0.000,0.000:
0000
0000
0000
0000
,
1000
0000
0000
0000
,
1000
0000
0000
0000
,
0010
0000
0000
0000
,
0010
0000
0000
0000
,
0100
0000
0000
0000
,
0100
0000
0000
0000
,
0001
0000
0000
0000
,
0001
0000
0000
0000
,
1000
0000
0100
0000
,
1000
0000
0000
0000
,
0001
0000
0010
0000
,
0001
0000
0000
0000
,
0100
0000
0010
0000
,
0100
0000
0000
0000
,
0001
0000
1000
0000
,
0001
0000
0000
0000
,
1000
0000
0000
0000
,
0000
0001
0000
0100
,
0000
0010
0000
0000
,
0000
1000
0000
0010
,
0000
0100
0000
0001
,
0000
1000
0000
0010
,
0000
1000
0000
0100
,
0000
1000
0000
0001
,
0000
0000
0000
0100
,
0000
0000
0000
0010
,
0000
0000
0000
0100
,
0000
0001
0000
1000
,
0000
0010
0000
1000
,
0000
0000
0000
0100
,
0000
0000
0000
0010
,
0000
0001
0000
1000
,
0000
0000
0000
1000
,
0000
0000
0001
0001
,
0001
0000
1000
0000
,
0010
0000
0100
0100
,
0100
0000
0010
0000
,
1000
0000
0100
0000
,
1000
0000
0001
0000
,
1000
0000
0001
0000
,
0010
0000
0001
0000
,
0100
0000
0000
0000
,
0100
0000
0000
0000
,
0010
0000
0010
0000
,
0100
0010
0100
0000
,
0001
0000
0000
0000
,
0001
0000
0000
0000
,
1000
0000
1000
0000
,
0001
1000
0001
0000
,
0000
0000
0000
1000
,
0000
0001
0100
0010
,
0000
0100
0000
0010
,
0000
1000
0010
0100
,
0000
0001
0000
0001
,
0000
1000
0000
1000
,
0000
0010
0000
0100
,
0000
0010
0000
0100
,
0000
0001
0000
0000
,
0000
1000
0000
1000
,
0000
0010
0100
0010
,
0000
0100
0000
0010
,
0000
0100
0000
0000
,
0000
0010
0000
0010
,
0000
1000
0001
1000
,
0000
0001
0000
1000
,
0000
0010
0000
0000
,
0000
0100
0000
0000
;

//---------------dance-single - ----------------
#NOTES:
     dance-single:
     :
     Medium:
     6:
     0.427,0.457,0.300,0.212,0.004:
0000
0000
0000
0000
,
2000
0000
3000
0000
,
0001
0000
1000
0000
,
0020
0000
0030
0000
,
0100
0000
0010
0000
,
1000
0000
0100
0000
,
0010
0000
0001
0000
,
0100
0000
0010
0000
,
1000
0000
0001
0000
,
1000
0000
0010
0100
,
1000
0000
0100
0001
,
0100
0000
0010
0100
,
0001
0010
1000
0010
,
0001
0000
1000
0001
,
1100
0000
0010
0100
,
0011
0000
1000
0010
,
0202
0000
0000
0303
,
2020
0000
3030
0001
,
1000
0100
1000
0000
0001
0000
0100
0000
,
0001
0010
0001
0000
0100
0000
0001
0000
,
1000
0100
1000
0100
1000
0000
0001
0000
,
1010
1000
0101
2002
,
3003
0000
1000
0010
1000
0000
0220
0000
,
0330
0000
0001
0100
0001
0000
1000
0000
,
1100
0010
0011
2000
,
3100
0020
0031
1010
,
1000
0000
1000
0100
0010
0000
0101
0000
,
0001
0000
0001
0010
0100
0000
0100
0000
,
0011
0000
1100
0000
0100
0000
1000
0001
,
0100
0000
0100
0001
1000
0000
0002
0000
,
1003
0100
1000
0000
0010
0000
2000
0000
,
3010
0100
0010
0000
0200
0000
0301
0000
,
1000
0000
0000
0000
0001
0000
0000
0001
0000
0000
0001
0000
0000
0000
0000
0000
,
2002
0000
0000
3003
,
1000
0000
0001
0010
0001
0010
0001
0000
,
0100
0000
0100
0100
0010
0000
1001
0000
,
1000
1001
0001
1001
,
1000
0100
0010
0100
1000
0000
0001
0000
,
1000
0000
0100
1000
0100
1000
0100
0000
,
0010
0000
0001
0010
0001
0000
0011
0000
,
0100
1001
0010
1100
,
0001
1000
0010
0000
0010
1000
0001
0000
,
1000
0000
0001
1000
0000
0010
0100
0010
,
0000
1000
0001
0000
1100
0000
0110
0000
,
0010
0110
0100
0110
,
0001
1000
0100
1000
0001
0000
0010
0000
,
0100
0000
1000
0100
0000
0100
1000
0000
,
0001
0000
1000
0100
1000
0000
0101
0000
,
1000
1001
0001
1010
,
0001
0010
0001
0000
1000
0100
1000
0000
,
0002
0000
1003
0000
0001
0010
0001
0000
,
1000
0010
0000
0100
0001
0000
1000
0000
,
0110
0000
0001
0100
0010
0000
1000
0000
,
0100
0000
1000
0010
0100
0000
0001
0000
,
0010
0000
0001
0000
1000
0010
0000
0010
,
1000
0002
1003
2000
,
3010
0000
0010
0000
1000
0000
0001
1000
,
0001
0000
0100
0010
0100
0000
0011
0000
,
0101
0000
1000
0000
0001
0010
0100
0010
,
0001
1000
1100
0011
,
0001
0000
1000
0100
0010
0000
0010
0100
,
1000
0000
0001
0000
0100
0001
0000
1000
,
0010
0000
2000
0000
3100
0000
0100
1000
,
0001
0000
0002
0000
0013
0000
0010
0001
,
1000
0000
0001
0010
1000
0000
1000
0010
,
0001
0100
1000
0010
,
0001
0000
1000
0100
0001
0000
1000
0010
,
0001
0220
0000
0000
,
0000
0000
0000
0000
,
0330
0000
0000
0000
;

//---------------dance-single - ----------------
#NOTES:
     dance-single:
     :
     Challenge:
     9:
     0.685,0.640,0.336,0.336,0.371:
0000
0000
0000
0000
,
1001
0000
0000
0000
0000
0000
0000
0000
1000
0000
0000
0010
0000
0000
0100
0000
,
1010
0000
0000
0000
0000
0000
0000
0000
0001
0000
0000
0100
0000
0000
0010
0000
,
0101
0000
0000
0000
0000
0000
0000
0000
1000
0000
0000
0100
0000
0000
0010
0000
,
0002
0000
0000
0023
0000
0000
1030
0000
0020
0000
0000
0000
0031
0000
0000
0000
,
1001
0000
0000
0000
0000
0000
0000
0000
0200
0000
0000
0010
0000
0000
0310
0000
,
0110
0000
0000
0000
0000
0000
0000
0000
0002
0000
0000
1000
0000
0000
1003
0000
,
1100
0000
0000
0000
0000
0000
0000
0000
0010
0000
0000
1001
0000
0000
0100
0000
,
0001
0000
0000
0110
0000
0000
1000
0000
0001
0000
0000
0000
1001
0000
0000
0000
,
1000
0000
1000
0000
0000
0001
0100
0000
0100
0000
0020
0000
0000
0000
0000
0000
,
0130
0000
0100
0000
0000
0010
1000
0000
1000
0000
0002
0000
0000
0000
0000
0000
,
0013
0000
0010
0000
0000
0001
1000
0000
0100
0000
0200
0000
0000
0000
0000
0000
,
1300
0100
0001
0100
1000
0000
1001
0000
,
0001
0000
0010
0000
0100
0000
0000
1000
0100
0000
0001
0000
0100
0000
0000
0000
,
1000
0000
0010
0000
0100
0000
0000
0100
0001
0000
1000
0000
0010
0000
0000
0000
,
1000
0000
0100
0000
1000
0000
0000
1000
0010
0000
0100
0000
0100
0000
0000
0100
,
0001
0000
0010
0000
0001
0000
0000
0001
0100
0000
0010
0000
0100
0000
0000
0010
,
1000
0000
0100
0000
0010
0000
0001
0000
2002
3003
0000
0000
0012
0000
0000
0000
,
1003
0000
0000
1000
0010
0000
1000
0000
0010
0000
0000
0000
2100
0000
0000
0000
,
3010
0000
0000
0010
1000
0000
0100
0000
0010
0000
0000
0000
0001
0000
0001
0000
,
0100
0000
0000
0000
1000
0000
0010
0000
0001
0000
0000
0000
1000
0000
0000
0100
,
0010
0000
0100
0000
0001
0000
0000
0100
1000
0000
0001
0000
1020
0000
0000
0000
,
0130
0000
0100
0001
0010
0000
0201
0000
,
0310
0000
0100
0001
1000
0000
1000
0100
,
0001
0000
0000
0000
1000
0000
0010
0000
0001
0000
0000
0000
1000
0000
0000
0010
,
0001
0000
0010
0000
1000
0000
0000
0000
0110
0000
0000
0001
1000
0000
0100
0000
,
0100
0000
0000
0000
2000
0000
0010
0000
3010
0000
0000
0010
1000
0000
0100
0000
,
0010
0000
0000
0000
0002
0000
0010
0000
1003
0000
0000
0000
1000
0000
0000
0001
,
0100
0000
0010
0000
0100
0000
0000
0100
0001
0000
1000
0000
0001
0000
0100
0000
,
0001
0010
0001
0000
1010
0000
0101
0000
,
1001
0000
0000
1000
0100
0000
1000
0000
0010
0000
1000
0000
0011
0000
0000
0000
,
1100
0000
0000
0001
1000
0000
0100
0000
1000
0000
0001
0000
0110
0000
0000
0000
,
1001
0000
0000
0000
0110
0000
0000
0110
0000
0000
2002
0000
0000
3003
0000
0000
,
0220
0000
0000
0000
0000
0000
0000
0000
0330
0000
0000
0000
2002
3003
0000
0000
,
0110
0000
0000
0001
0010
0000
1000
0000
0010
0000
0001
0000
0100
0000
0010
0000
,
1000
0000
0000
1000
0010
0000
1000
0000
0001
0000
1000
0000
1000
0000
0001
0000
,
1000
0100
0000
0000
0100
0010
0000
0000
0010
0001
0000
0000
0001
1000
0000
0000
,
1000
0000
0100
0000
0010
0000
0001
1000
0001
0000
0100
0000
0010
0000
1000
0000
,
1001
0000
0000
1000
0100
0000
0001
0000
0100
0000
1000
0000
0001
0000
0100
0000
,
0010
0000
1000
0100
1000
0000
0001
0010
0001
0000
1000
0000
0100
0000
0010
0000
,
0002
0000
0000
1003
0020
0000
0000
0130
0002
0000
0000
1003
0200
0000
0000
1300
,
0001
0010
0100
1000
1000
0010
0100
0001
,
2000
0100
3100
1000
0001
0010
0001
0100
,
0001
0000
1000
0100
1000
0000
0001
0000
0100
0000
0010
0000
1000
0000
0100
0000
,
1000
0001
0000
0000
0001
1000
0000
0000
0010
0100
0000
0000
0100
0010
0000
0000
,
1000
0000
0010
0100
0010
0000
1000
0000
0010
0000
0100
0001
0100
0000
0010
0000
,
2000
0000
0000
3001
0010
0000
0001
0000
0100
0000
1000
0000
0100
0000
0001
0000
,
0010
0000
1000
0000
0010
0000
0100
1000
0100
0000
1000
0000
0010
0000
1000
0000
,
0002
0010
0013
0000
0200
1000
1300
0000
,
0001
1000
0100
0010
0010
0100
1000
0001
,
0220
0330
0000
0000
1100
0000
0000
0011
0000
0000
1000
0000
0100
0000
0010
0000
,
0001
0000
1000
0000
0001
0000
1000
0100
0010
0000
0001
0000
0100
0000
1000
0000
,
0001
0000
0010
0000
1000
0001
0000
0000
0001
0100
0000
0000
1000
0100
0000
0000
,
0001
1000
0000
0000
0001
0000
0100
0010
0001
0000
0010
0100
0001
0000
1000
0000
,
0100
0000
0010
0000
0001
0000
0000
1010
0000
0000
0001
0000
1000
0100
1000
0000
,
0001
0000
0001
0000
1000
0000
0000
0101
0000
0000
1000
0000
0001
0010
0001
0000
,
0100
0000
0010
0000
2000
0000
0000
3001
0200
0000
0000
0310
2000
0000
0000
3001
,
0020
0000
0000
0031
0100
0000
0001
0000
1000
0000
0010
0000
1000
0000
0001
0000
,
0100
0000
0010
0000
1010
0000
0000
0101
0000
0000
1000
0000
0001
0000
0100
0010
,
0100
0001
1000
0100
1000
0001
0100
0010
,
1000
0000
0100
0000
1000
0100
0000
0000
0100
0001
0000
0000
0001
0100
0000
0000
,
0100
1000
0000
0000
1000
0000
0001
0010
0100
0000
0001
0000
0100
0000
0010
0001
,
1000
0000
0001
0000
0100
0000
0000
0100
0001
0000
1000
0000
0010
0000
1000
0000
,
0100
0000
1000
0000
0001
0000
0010
0001
0010
0000
0100
1000
0100
0000
1000
0000
,
0100
0000
0010
0000
0001
0000
1000
0000
0100
0000
0001
1000
0010
0000
0001
0000
,
1000
0000
0010
0000
0100
0000
0000
0100
0001
0000
0000
0001
1000
0000
0000
1000
,
0010
0000
0000
0010
1000
0000
0100
0000
0010
0000
0001
0000
0100
0000
0010
0000
,
1000
2002
0000
0000
,
0000
0000
0000
0000
,
3003
0000
0000
0000
;
