#TITLE:Regret Breaker;
#SUBTITLE:;
#ARTIST:Moa of Plasmagica;
#TITLETRANSLIT:;
#SUBTITLETRANSLIT:;
#ARTISTTRANSLIT:;
#GENRE:;
#CREDIT:Timer Rabbit;
#MENUCOLOR:;
#METERTYPE:DDR;
#BANNER:breaker_bn.PNG;
#BACKGROUND:breaker_bg.PNG;
#LYRICSPATH:;
#CDTITLE:timerrabbit.png;
#MUSIC:Regret Breaker.ogg;
#OFFSET:0.000;
#SAMPLESTART:44.095;
#SAMPLELENGTH:12.000;
#SELECTABLE:YES;
#LISTSORT:;
#BPMS:0.000=131.005;
#STOPS:;
#BGCHANGES:17.000=902_JumpBack.mpg=1.000=1=0=1,
33.000=hearts.avi=1.000=0=0=1,
45.000=breaker_bg.png=1.000=0=0=1,
49.000=pink_city.avi=1.000=1=0=1,
65.000=musicnotes.avi=1.000=0=0=1,
77.000=breaker_bg.png=1.000=0=0=1,
80.500=white.PNG=1.000=0=0=1,
81.000=882_JumpBack.mpg=1.000=1=0=1,
93.000=breaker_bg.png=1.000=0=0=1,
97.000=discoball.avi=1.000=1=0=1,
113.000=hearts.avi=1.000=0=0=1,
125.000=breaker_bg.png=1.000=0=0=1,
127.500=white.PNG=1.000=0=0=1,
128.000=902_JumpBack.mpg=1.000=1=0=1,
144.000=pink_city.avi=1.000=0=0=1,
156.500=white.PNG=1.000=0=0=1,
157.000=breaker_bg.png=1.000=1=0=1,
161.000=882_JumpBack.mpg=1.000=1=0=1,
177.000=discoball.avi=1.000=0=0=1,
193.000=902_JumpBack.mpg=1.000=1=0=1,
209.000=hearts.avi=1.000=0=0=1,
225.000=musicnotes.avi=1.000=0=0=1,
231.000=breaker_bg.png=1.000=0=0=1,
232.500=white.PNG=1.000=0=0=1,
233.000=882_JumpBack.mpg=1.000=1=0=1,
249.000=pink_city.avi=1.000=0=0=1,
263.500=breaker_bg.png=1.000=0=0=1,
99999=-nosongbg-=1.000=0=0=0 // don't automatically add -songbackground-
;
#ATTACKS:;

//---------------dance-single - DDR rating!----------------
#NOTES:
     dance-single:
     DDR rating!:
     Hard:
     7:
     0.438,0.451,0.161,0.596,0.000: // measure 1
0000
0000
0000
0000
,  // measure 2
0000
0000
0000
0000
,  // measure 3
0000
0000
0000
0000
,  // measure 4
0000
0000
0000
0000
,  // measure 5
0000
0000
1000
0100
0010
0001
0010
0100
,  // measure 6
0000
0000
0001
0010
0100
1000
0200
0000
,  // measure 7
0320
0000
0031
1000
0010
0001
0100
1000
,  // measure 8
0000
2000
3002
2003
,  // measure 9
3002
0000
0013
1000
0100
0001
0010
0001
,  // measure 10
0000
0000
0010
0001
0100
1000
0200
0000
,  // measure 11
0320
0000
0031
1000
0100
0010
0001
1000
,  // measure 12
0000
2000
3002
2003
,  // measure 13
3002
0000
0013
1000
0100
0000
0010
0001
,  // measure 14
0100
2000
3002
2003
,  // measure 15
3002
0000
0013
1000
0001
0000
0010
0001
,  // measure 16
1000
2000
3002
2003
,  // measure 17
3000
0000
0010
0100
0001
0000
0010
0100
,  // measure 18
1000
0200
0320
0230
,  // measure 19
0300
0000
0010
0100
1000
0000
0010
0100
,  // measure 20
0001
0000
1000
0001
1000
0001
1000
0000
,  // measure 21
2000
0001
0100
0010
,  // measure 22
3001
0002
0100
0010
,  // measure 23
1003
0000
0010
1000
0100
0001
0100
0010
,  // measure 24
0000
0002
2003
3002
,  // measure 25
2003
0000
3010
0001
1000
0000
1000
0100
,  // measure 26
0010
0002
2003
3002
,  // measure 27
2003
0000
3010
0100
1000
0000
0100
0010
,  // measure 28
0001
0200
0320
0230
,  // measure 29
0300
0000
0010
1000
0010
0000
0001
0100
,  // measure 30
0001
0002
2003
3002
,  // measure 31
2003
0000
3001
1000
0001
0000
1000
0001
,  // measure 32
1000
0000
0001
1000
0100
0010
0001
0000
,  // measure 33
1000
0100
0001
0000
0001
0100
1000
0000
,  // measure 34
1000
0010
0001
0000
0001
0010
1000
0000
,  // measure 35
1000
0100
1100
0000
0001
0010
0011
0000
,  // measure 36
0100
0010
0110
0000
1000
0001
1001
0000
,  // measure 37
0010
1000
0100
0000
0010
0001
0100
0000
,  // measure 38
1000
0001
1000
0000
0001
1000
0001
0000
,  // measure 39
0001
0100
0020
0000
0000
0000
0130
0010
,  // measure 40
0100
1001
0100
1001
,  // measure 41
0010
0000
0002
0000
0103
0010
0000
0000
,  // measure 42
1000
0002
0100
0010
,  // measure 43
1003
0000
2000
0000
3010
0001
0000
0000
,  // measure 44
0100
0020
1000
0001
,  // measure 45
1030
0000
0200
0000
0310
0100
0000
0000
,  // measure 46
0001
0000
2000
0000
3001
1000
0000
0000
,  // measure 47
0001
0000
0100
0010
0100
0000
0100
0010
,  // measure 48
0002
1000
1000
1000
,  // measure 49
1003
0000
0020
0000
0031
1000
0000
0000
,  // measure 50
0010
2000
0100
3001
,  // measure 51
0010
0000
0200
0000
0301
1000
0000
0000
,  // measure 52
0010
0011
1000
0101
,  // measure 53
0001
0000
2000
0000
3100
0010
0000
0000
,  // measure 54
0100
0000
0002
0000
1003
0100
0000
0000
,  // measure 55
0001
0000
2002
0000
3003
2002
0000
0000
,  // measure 56
3003
2002
0000
0000
0000
0000
0000
3003
,  // measure 57
0000
0000
0220
0000
0330
2200
0000
0000
,  // measure 58
3300
0022
0000
0000
0000
0000
1033
0000
,  // measure 59
0001
0000
1000
0100
0010
0001
1000
0010
,  // measure 60
0000
0000
1000
0001
0010
1000
0200
0000
,  // measure 61
0320
0000
1030
0000
0001
0100
1000
0010
,  // measure 62
0000
0200
0320
0230
,  // measure 63
0320
2030
0000
3002
,  // measure 64
0003
1001
0110
1001
,  // measure 65
0000
1100
0000
0011
,  // measure 66
0000
0000
0200
0000
0320
0000
1030
1001
;

//---------------dance-single - DDR level!----------------
#NOTES:
     dance-single:
     DDR level!:
     Medium:
     5:
     0.367,0.454,0.338,0.403,0.000:
0000
0000
0000
0000
,
0000
0000
0000
0000
,
0000
0000
0000
0000
,
0000
0000
0000
0000
,
2000
0100
0010
0001
,
3001
1001
0110
1001
,
0110
0002
0010
0100
,
1000
1003
1100
0100
,
0101
0021
0100
1000
,
1030
2000
0010
0001
,
0100
3001
0110
1001
,
0110
1000
0001
2000
,
3001
0000
1000
0100
0000
0000
0100
0001
,
0000
0001
0010
1000
,
1000
0000
1000
0010
0000
0000
0010
0001
,
0000
0001
1000
0001
,
1000
0000
0100
0010
0000
0000
0010
0100
,
0000
0010
0001
0100
,
0010
0000
0010
1000
0000
0000
0100
0001
,
0000
1000
0001
1000
,
0001
0101
0010
1010
,
0100
0110
0100
1100
,
0002
1003
2000
3001
,
0200
0310
0020
0130
,
0110
2000
3100
0020
,
0031
0001
0010
0100
,
1000
2000
3001
0002
,
1003
1000
0100
0010
,
0001
0020
0130
0200
,
0310
2000
3002
2003
,
3002
0003
0020
1030
,
0020
0031
0200
0320
,
1030
1001
0001
1001
,
1000
1010
0001
0011
,
0001
0101
0100
1100
,
0100
0110
0010
0110
,
0001
0101
0100
1100
,
1000
1010
0010
0011
,
1000
0001
2000
0000
0000
0000
3002
0000
,
0000
1003
1000
1000
,
1000
0000
0001
0000
0010
0100
0000
0000
,
1000
0010
0001
0100
,
1000
0000
1000
0000
0100
0010
0000
0000
,
0001
1000
0100
0010
,
1000
0012
0103
2010
,
3100
1002
1003
2001
,
3001
0220
0000
2332
,
0000
0000
0000
0000
,
3003
0000
1000
0000
0100
0010
0000
0000
,
0002
1000
1000
1000
,
1003
0000
0100
0000
0001
0010
0000
0000
,
2000
0001
0001
0001
,
3001
0000
0001
0000
1000
0100
0001
0000
,
0000
0000
1000
0000
0001
0100
1000
0000
,
0000
0000
2002
0000
3003
2002
0000
0000
,
3003
2002
0000
0000
0000
0000
0000
0000
,
0000
3003
0200
0000
0300
0020
0000
0000
,
0230
0000
0300
1000
,
0001
2000
0001
0010
,
0001
0100
0001
3010
,
1000
0002
1000
0010
,
1000
0100
1003
0001
,
1000
1001
0000
1001
,
0000
0110
1001
0110
,
0000
2000
0000
3002
,
0000
0013
0100
0220
,
0000
0330
0000
0000
;

//---------------dance-single - DDR Level!----------------
#NOTES:
     dance-single:
     DDR Level!:
     Easy:
     3:
     0.157,0.268,0.105,0.105,0.000:
0000
0000
0000
0000
,
0000
0000
0000
0000
,
0000
0000
0000
0000
,
0000
0000
0000
0000
,
0000
1000
0000
0000
,
0000
0001
0000
0000
,
0000
1000
0000
0000
,
0000
0001
0000
0000
,
0000
0100
0000
0000
,
0000
0010
0000
0000
,
0000
0100
0000
0000
,
0000
0010
0000
0000
,
0000
1001
0000
0000
,
0000
0001
0000
0000
,
0000
1001
0000
0000
,
0000
1000
0001
1000
,
0000
0110
0000
0000
,
0000
0010
0000
0000
,
0000
0110
0000
0000
,
0000
0100
0010
0100
,
0010
0000
0001
0000
,
0000
0001
0000
0000
,
0000
1000
0000
0000
,
0000
1000
0000
0000
,
0000
1001
0000
0000
,
0000
1000
0001
1000
,
0000
1001
0000
0000
,
0000
0100
0010
0100
,
0000
0110
0000
0000
,
0000
0010
1000
0100
,
0000
0110
0000
0000
,
0000
0010
0001
0100
,
1000
0001
1000
0001
,
1000
0001
1000
0001
,
0100
0010
0100
0010
,
0100
0010
0100
0010
,
0001
1000
0001
1000
,
0001
1000
0001
1000
,
2002
0000
0000
0000
,
3003
0100
0100
0100
,
0100
1000
0000
0000
,
0000
0001
0000
0000
,
0000
0010
0000
0000
,
0000
1000
0000
0000
,
0000
0100
0000
0000
,
0000
0010
0000
0000
,
0000
0002
0000
2003
,
0000
3001
0001
0001
,
0001
1000
0000
0000
,
0000
0001
0000
0000
,
0000
0100
0000
0000
,
0000
0010
0000
0000
,
0000
1000
0000
0000
,
0000
0001
0000
0000
,
0000
0000
1001
0000
0000
1001
0000
0000
,
2002
0000
0000
0000
,
3003
0000
0100
0000
0000
0010
0000
0000
,
0200
0000
0000
0301
,
0001
0001
0000
0000
,
0000
1000
0000
0000
,
0000
0001
0000
0000
,
0000
1000
0000
0000
,
0000
0002
0000
2003
,
0000
3001
0001
0001
,
0000
0020
0000
0230
,
0000
1300
0001
2002
,
0000
0000
3003
0000
;
