#TITLE:Happy Halloween MARIA;
#SUBTITLE:;
#ARTIST:Maria Ushiromiya;
#TITLETRANSLIT:;
#SUBTITLETRANSLIT:;
#ARTISTTRANSLIT:;
#CREDIT:Timer Rabbit;
#BANNER:maria_bn.png;
#BACKGROUND:maria_bg.png;
#LYRICSPATH:;
#CDTITLE:timerrabbit.PNG;
#MUSIC:maria.ogg;
#OFFSET:-0.040;
#SAMPLESTART:46.109;
#SAMPLELENGTH:12.000;
#SELECTABLE:YES;
#DISPLAYBPM:150.000;
#BPMS:0.000=150.000,211.750=449.998,212.000=150.000;
#STOPS:;
#BGCHANGES:5.000=Kaliedoscope6.avi=1.000=1=0=1,
21.000=Heart4.avi=1.000=0=0=1,
35.000=maria_bg.png=1.000=0=0=1,
37.000=Kaleidoscope4.avi=1.000=1=0=1,
53.000=Heart1.avi=1.000=0=0=1,
65.000=maria_bg.png=1.000=0=0=1,
69.000=Star1.avi=1.000=1=0=1,
85.000=star.avi=1.000=0=0=1,
101.000=particle.avi=1.000=1=0=1,
112.000=maria_bg.png=1.000=0=0=1,
115.000=Kaleidoscope4.avi=1.000=1=0=1,
131.500=Heart4.avi=1.000=0=0=1,
144.500=maria_bg.png=1.000=0=0=1,
147.000=particle.avi=1.000=1=0=1,
163.500=Star1.avi=1.000=0=0=1,
181.000=Heart1.avi=1.000=1=0=1,
202.000=star.avi=1.000=0=0=1,
208.000=maria_bg.png=1.000=0=0=1,
212.000=Kaliedoscope6.avi=1.000=1=0=1,
228.000=Heart4.avi=1.000=0=0=1,
241.500=white.PNG=1.000=0=0=1,
242.000=moe.png=1.000=1=0=1,
244.000=maria_bg.png=1.000=1=0=1,
99999=-nosongbg-=1.000=0=0=0 // don't automatically add -songbackground-
;

//---------------dance-single - ----------------
#NOTES:
     dance-single:
     :
     Hard:
     7:
     0.447,0.550,0.233,0.476,0.000: // measure 1
0000
0000
0000
0000
,  // measure 2
0000
0100
0100
0010
,  // measure 3
0010
2000
3002
0203
,  // measure 4
0320
0030
0010
0000
0010
0000
0100
0000
,  // measure 5
0100
2000
3002
2003
,  // measure 6
3000
0001
0001
1000
,  // measure 7
1000
0020
0230
0302
,  // measure 8
2003
3000
1000
0000
1000
0000
0001
0000
,  // measure 9
0001
0200
0320
2030
,  // measure 10
3000
0000
1000
0100
0100
0000
0011
0000
,  // measure 11
0101
0000
0010
1000
1000
0000
0110
0000
,  // measure 12
0011
0000
0001
0100
0010
0000
1000
0000
,  // measure 13
0100
0110
1001
0110
,  // measure 14
0000
0000
0001
0100
0100
0000
1100
0000
,  // measure 15
0011
0100
0010
0110
,  // measure 16
1001
0000
0100
0010
0010
0000
0001
0000
,  // measure 17
0100
1100
1100
1100
,  // measure 18
0000
0000
1000
0100
0010
0001
0100
0010
,  // measure 19
1000
0000
1000
0001
0100
0020
0000
0000
,  // measure 20
0130
0000
1000
0100
1000
0000
0010
0100
,  // measure 21
0010
0000
2010
0001
3100
0102
1000
0013
,  // measure 22
0000
0000
0010
0001
0100
1000
1000
1000
,  // measure 23
0100
0010
0001
0001
0001
0002
0000
0000
,  // measure 24
0003
0000
0001
0100
0010
1000
0100
0010
,  // measure 25
0001
1000
0001
1000
0100
0010
0100
0010
,  // measure 26
0000
0101
1010
1000
,  // measure 27
0001
0001
0000
1000
1000
0000
0000
0000
,  // measure 28
0100
1000
0100
0000
0010
0001
0010
0000
,  // measure 29
0200
0000
0300
1000
,  // measure 30
0010
0000
0001
0010
0100
0000
0100
0010
,  // measure 31
0002
0000
0000
0003
,  // measure 32
0010
1000
0010
0000
0000
1000
0000
0100
,  // measure 33
0000
0020
0000
0000
0000
0030
0000
0001
,  // measure 34
1000
0002
0000
0000
0000
0003
0000
0100
,  // measure 35
0010
2000
0000
0000
0000
3000
0000
0000
,  // measure 36
0000
0000
0210
0000
0010
0010
0000
0001
,  // measure 37
0000
2300
0000
0000
3000
0000
0001
0000
,  // measure 38
0100
0000
0010
1000
0100
0000
0001
1000
,  // measure 39
0020
0000
0000
0030
,  // measure 40
0001
0100
0001
0000
0000
0100
0000
0010
,  // measure 41
0000
2000
0000
0000
0000
3000
0000
0100
,  // measure 42
0010
0200
0000
0000
0000
0300
0000
0001
,  // measure 43
1000
0002
0000
0000
0000
0003
0000
0000
,  // measure 44
0000
0000
1000
0000
0001
0100
0001
1000
,  // measure 45
0001
1000
0000
0001
,  // measure 46
1000
2100
0001
0100
,  // measure 47
0001
0100
0001
3100
,  // measure 48
0012
1000
0010
1000
,  // measure 49
0010
1000
0013
0210
,  // measure 50
0001
0010
0001
0010
,  // measure 51
0001
0310
0102
1000
,  // measure 52
0100
1000
0100
1000
,  // measure 53
0103
0100
0010
0010
,  // measure 54
0001
0001
1000
1000
,  // measure 55
0002
0000
2003
0000
3200
0000
0320
0030
,  // measure 56
0010
0010
0100
0100
,  // measure 57
0002
2003
3002
0003
,  // measure 58
0100
0100
0010
0010
,  // measure 59
0020
0000
2030
0000
3200
0000
0302
0003
,  // measure 60
0001
0001
1000
1000
,  // measure 61
0200
0320
0032
0003
,  // measure 62
0001
1000
0100
0010
,  // measure 63
0220
0000
0000
0000
,  // measure 64
0330
0000
0000
0000
;

//---------------dance-single - ----------------
#NOTES:
     dance-single:
     :
     Medium:
     5:
     0.405,0.489,0.262,0.573,0.000:
0000
0000
0000
0000
,
0000
0100
0100
0010
,
0010
0002
2003
3002
,
2003
3000
1000
0000
1000
0000
0001
0000
,
0001
0200
0320
2030
,
3000
0001
0001
1000
,
1000
0200
0320
0230
,
0320
0030
0010
0000
0010
0000
0100
0000
,
0100
2000
3002
0203
,
0300
0001
0001
2000
,
3200
0310
0010
0100
,
0100
0002
2003
3100
,
0010
0110
1001
0110
,
0000
0100
0100
0020
,
2030
3001
0001
0100
,
0100
1000
0100
0010
,
0001
1000
0001
1000
,
0000
0000
1000
0100
1000
0000
0010
0000
,
0001
0110
0110
0100
,
0010
0000
0010
0001
0010
0000
1000
0000
,
0100
0020
0000
0200
,
0330
1000
0010
0001
,
0100
0000
0010
0000
1000
0001
1000
0000
,
0000
0100
0110
0010
,
0110
0001
1001
1000
,
1001
0001
0001
0001
,
1000
1000
0000
1000
1000
0000
0000
0000
,
1100
0011
0110
0000
,
2002
0000
3003
1000
,
0001
0000
0001
0100
0020
0000
0000
0000
,
2030
0000
0000
3000
,
1000
0100
0010
0001
,
2000
0000
0000
0000
3000
0000
0000
0001
,
0000
0202
0000
0000
0000
0303
0000
1000
,
0000
2020
0000
0000
0000
3030
0000
0000
,
0000
0010
1000
0001
,
0200
0000
0300
0001
,
1000
0000
0010
0100
0002
0000
0000
0000
,
2003
0000
0000
3000
,
0100
0010
0001
1000
,
0200
0000
0000
0000
0300
0000
0000
0100
,
0000
2200
0000
0000
0000
3300
0000
0010
,
0000
0022
0000
0000
0000
0033
0000
0000
,
0000
0001
0000
0100
,
0000
0010
0000
1000
,
0000
0102
0100
0100
,
0100
0100
0100
0103
,
2010
0010
0010
0010
,
0010
0010
3010
0000
,
2100
0100
0100
0100
,
0100
0100
0100
3100
,
0012
0010
0010
0010
,
0010
0010
0013
1001
,
0001
0001
1000
1000
,
0200
0000
0320
0000
0230
0000
0320
0030
,
0010
0100
0010
0010
,
2000
3200
0302
0003
,
0100
0100
0010
0010
,
2000
0000
3002
0000
2003
0000
3002
0003
,
0001
0001
1000
1000
,
0002
0203
0320
0030
,
0110
0110
1001
1001
,
2002
0000
0000
0000
,
3003
0000
0000
0000
;

//---------------dance-single - ----------------
#NOTES:
     dance-single:
     :
     Easy:
     4:
     0.241,0.306,0.010,0.282,0.000:
0000
0000
0000
0000
,
0000
1000
0000
0100
,
0000
1000
0000
0100
,
0000
0010
0000
0001
,
0000
0010
0010
0010
,
0000
0001
0000
0100
,
0000
0001
0000
0100
,
0000
0010
0000
1000
,
0000
0010
0010
0010
,
0000
0001
1000
0000
,
1000
0100
0000
0100
,
0010
0000
0010
0001
,
0000
0100
0010
0100
,
0000
1000
0001
0000
,
0001
1000
0000
0100
,
0010
0000
0010
0001
,
0000
0001
1000
1000
,
0000
0200
0000
0000
,
0310
0002
0000
0000
,
1003
2000
0000
0000
,
3100
0100
0100
0010
,
0010
0002
0003
2000
,
3000
0100
0100
0200
,
0000
0300
0001
0000
,
0010
0000
1000
0000
,
0100
0001
0100
0001
,
0100
0010
1000
0000
,
1000
0100
0010
0002
,
0000
0000
0003
0002
,
2003
3002
0000
0000
,
2003
0000
0000
3000
,
0100
0000
0010
0000
,
0200
0000
0000
0000
0300
0000
0000
0002
,
0000
0000
0000
0000
0000
0003
0000
2000
,
0000
0000
0000
0000
0000
0000
0000
3000
,
0000
0010
0010
0010
,
0020
0000
0030
2000
,
3002
2003
0000
0000
,
3200
0000
0000
0300
,
0010
0000
0001
0000
,
2000
0000
0000
0000
3000
0000
0000
0200
,
0000
0000
0000
0000
0000
0300
0000
0020
,
0000
0000
0000
0000
0000
0000
0000
0030
,
0000
1000
1000
1000
,
2000
0000
3002
0000
,
0003
0100
0100
0010
,
0010
0100
0100
0001
,
0001
1000
1000
0001
,
0001
1000
1000
0001
,
0001
0100
0010
0010
,
1000
1000
0001
0001
,
0100
0100
0010
0010
,
0220
0000
0000
0330
,
0001
0000
0100
0000
,
0001
0000
0100
0000
,
0010
0000
1000
0000
,
0100
0100
0100
0000
,
1000
0000
0100
0000
,
1000
0000
0100
0000
,
0010
0000
0001
0000
,
0100
0100
0200
0000
,
0320
0000
0000
0000
,
0000
0000
0230
0000
,
0300
0000
0000
0000
;
