#TITLE:Waiting 4 u;
#SUBTITLE:;
#ARTIST:DDT;
#TITLETRANSLIT:;
#SUBTITLETRANSLIT:;
#ARTISTTRANSLIT:;
#GENRE:;
#CREDIT:;
#MENUCOLOR:;
#METERTYPE:DDR;
#BANNER:Waiting 4 u.png;
#BACKGROUND:Waiting 4 u-bg.png;
#LYRICSPATH:;
#CDTITLE:./CDTITLES/DanceDanceRevolution X.png;
#MUSIC:Waiting 4 u.mp3;
#OFFSET:-0.065;
#SAMPLESTART:45.280;
#SAMPLELENGTH:10.980;
#SELECTABLE:YES;
#LISTSORT:;
#BPMS:0.000=175.000;
#STOPS:;
#BGCHANGES:;
#ATTACKS:;

//---------------dance-single - ----------------
#NOTES:
     dance-single:
     Dr.D:
     Edit:
     9:
     0.691,0.746,0.493,0.241,0.173: // measure 1
0000
0000
0000
0000
,  // measure 2
0000
0000
0000
0000
,  // measure 3
0000
0000
0000
0000
,  // measure 4
0000
0000
0000
0000
,  // measure 5
0000
0000
0000
0000
,  // measure 6
0010
0000
0000
0100
1000
0000
0010
0000
0100
0000
0000
0001
0010
0000
0001
0000
,  // measure 7
0100
0000
0000
0010
1000
0000
0100
0000
1000
0000
0000
0100
0010
0000
0001
0000
,  // measure 8
0100
0000
0000
0010
1000
0000
0100
0000
0010
0000
0000
0001
0100
0000
0010
0000
,  // measure 9
0100
0000
0000
0100
0001
0000
0010
0000
2200
0000
0000
0000
3300
0000
0000
0000
,  // measure 10
0001
0100
0100
1000
0100
0100
0001
0100
,  // measure 11
0200
1000
0310
0100
,  // measure 12
1000
0100
0100
0001
0100
0100
1000
0100
,  // measure 13
0200
1000
0301
0010
,  // measure 14
0001
0010
0010
1000
0100
0100
0001
0010
,  // measure 15
0020
1000
0130
1000
,  // measure 16
0001
0100
0100
1000
0010
0010
0001
0100
,  // measure 17
0220
0000
0330
0100
,  // measure 18
0010
1000
0100
0001
0000
0001
0100
1000
,  // measure 19
0010
0001
0010
1000
0000
0100
0010
0001
,  // measure 20
0100
0001
1000
1001
0000
0110
0000
0101
,  // measure 21
0000
0011
0000
1100
0100
0000
0100
0000
,  // measure 22
1000
0100
0001
0100
0000
0100
1000
0010
,  // measure 23
0100
1000
0100
0001
0000
0001
0010
1000
,  // measure 24
0010
0001
0100
0110
0000
0101
0000
1001
,  // measure 25
0000
1100
0000
0110
0100
0000
0010
0000
,  // measure 26
0001
0100
0010
1000
0000
1000
0100
0010
,  // measure 27
0001
0100
0010
1000
0000
0100
0010
0001
,  // measure 28
0100
0010
1000
1001
0000
1010
0000
1100
,  // measure 29
0000
1001
0000
0110
0000
1100
1000
0000
,  // measure 30
1000
0100
0100
0100
0000
1000
0100
0100
,  // measure 31
0001
0100
0100
0100
0000
0001
0010
0010
,  // measure 32
1000
0100
0100
1001
0000
0110
0000
1001
,  // measure 33
0220
0000
0000
0330
,  // measure 34
1001
0000
0110
0000
0010
1000
0100
0000
,  // measure 35
0110
0000
0011
0000
0010
0001
0100
0000
,  // measure 36
0010
1000
0100
1000
0100
0010
0001
0000
,  // measure 37
1000
0010
0100
0001
0100
0001
0100
0000
,  // measure 38
1001
0000
0110
0000
0001
1000
0010
0000
,  // measure 39
1010
0000
1100
0000
0010
0001
0100
0000
,  // measure 40
0001
1000
0100
0010
0100
0010
0100
0000
,  // measure 41
1000
0001
0100
0010
0100
0010
0100
0000
,  // measure 42
1010
0000
0101
0000
0001
1000
0100
0000
,  // measure 43
0110
0000
0011
0000
0010
0001
0100
0000
,  // measure 44
0001
0100
1000
0100
0001
0010
1000
0000
,  // measure 45
1000
0010
0001
0100
1000
0100
0001
0000
,  // measure 46
1001
0000
0110
0000
0001
1000
0100
0000
,  // measure 47
1100
0000
0011
0000
0001
1000
0100
0000
,  // measure 48
1000
0100
0001
0100
1000
0010
0001
0000
,  // measure 49
1000
0100
0001
0010
0100
1000
0100
0000
,  // measure 50
0010
0000
0000
1000
0100
0000
1000
0000
0100
0000
0010
0000
0001
0000
0010
0000
,  // measure 51
0011
0000
0000
0001
0010
0000
0001
0000
1000
0000
0100
0000
1000
0000
0100
0000
,  // measure 52
1100
0000
0000
0001
2000
0000
0000
0100
3020
0000
0001
0000
0130
0000
0010
0000
,  // measure 53
0100
0000
0000
0010
2000
0000
0000
3100
0020
0000
0001
0030
0100
0000
0001
0000
,  // measure 54
0100
0000
0000
0010
1000
0000
0100
0000
0010
0000
0001
0000
1000
0000
0010
0000
,  // measure 55
1010
0000
0000
0100
0010
0000
0001
0000
0100
0000
0001
0000
0100
0000
0001
0000
,  // measure 56
0101
0000
0000
0100
0020
0000
0000
1030
0200
0000
0010
0300
0001
0000
1000
0000
,  // measure 57
0100
0000
0000
0010
0002
0000
0000
0103
0020
0000
0100
0030
0001
0000
0010
0000
,  // measure 58
0001
0000
0000
1000
0100
0000
1000
0000
0100
0000
0010
0000
0001
0000
0100
0000
,  // measure 59
0101
0000
0000
0001
0010
0000
0001
0000
0100
0000
0010
0000
1000
0000
0100
0000
,  // measure 60
1100
0000
0000
0100
0020
0000
0000
0031
0200
0000
0010
0300
1000
0000
0100
0000
,  // measure 61
1000
0000
0000
0010
0200
0000
0000
0301
0020
0000
0001
0030
0100
0000
0010
0000
,  // measure 62
1000
0000
0100
0000
0000
0001
0010
0100
,  // measure 63
1100
0000
0100
0000
0000
1000
0010
0100
,  // measure 64
0101
0001
0010
0100
,  // measure 65
1000
0100
0010
0001
0100
0001
0100
0010
1000
0100
0010
0001
1000
0010
0100
0010
,  // measure 66
2002
0000
0000
0000
,  // measure 67
0000
0000
0000
0000
,  // measure 68
0000
0000
0000
3003
;
