#TITLE:V(for EXTREME);
#SUBTITLE:;
#ARTIST:TAKA;
#TITLETRANSLIT:;
#SUBTITLETRANSLIT:;
#ARTISTTRANSLIT:;
#GENRE:PROGRESSIVE;
#CREDIT:;
#MENUCOLOR:;
#METERTYPE:DDR;
#BANNER:V(for EXTREME).png;
#BACKGROUND:V(for EXTREME)-bg.png;
#LYRICSPATH:;
#CDTITLE:./CDTITLES/BEATMANIA IIDX.PNG;
#MUSIC:V(for EXTREME).mp3;
#OFFSET:-0.047;
#SAMPLESTART:81.600;
#SAMPLELENGTH:15.000;
#SELECTABLE:YES;
#LISTSORT:;
#DISPLAYBPM:150.000;
#BPMS:0.000=150.000;
#STOPS:;
#BGCHANGES:;
#ATTACKS:;

//---------------dance-single - ddr_ray----------------
#NOTES:
     dance-single:
     ddr_ray:
     Edit:
     12:
     1.000,1.000,0.426,0.104,1.000: // measure 1
0000
0000
0000
0000
,  // measure 2
1000
0100
1000
0000
0001
0100
0001
0000
1000
0100
1000
0000
0001
0100
0001
0000
,  // measure 3
1000
0100
1000
0000
0001
0100
0001
0000
1000
0100
1000
0000
0001
0100
0001
0000
,  // measure 4
1000
0010
1000
0000
0001
0010
0001
0000
1000
0010
1000
0000
0001
0010
0001
0000
,  // measure 5
1000
0010
1000
0000
0001
0010
0001
0000
1000
0010
1000
0000
0001
0010
0001
0000
,  // measure 6
1000
0001
1000
0000
0001
1000
0001
0000
1000
0001
1000
0000
0001
1000
0001
0000
,  // measure 7
1000
0001
1000
0000
0001
1000
0001
0000
1000
0001
1000
0000
0001
0000
1000
0000
,  // measure 8
0001
0100
0001
0000
1000
0010
1000
0000
0001
0100
0001
0000
1000
0010
1000
0000
,  // measure 9
0001
0100
0001
0000
1000
0010
1000
0000
0001
0100
0001
0000
1000
0010
1000
0000
,  // measure 10
0010
0100
0010
0000
0100
0010
0100
0000
0010
0100
0010
0000
0100
0010
0100
0000
,  // measure 11
0001
0010
0001
0000
1000
0100
1000
0000
0001
0010
0001
0000
1000
0100
1000
0000
,  // measure 12
0010
0100
0010
0000
0100
0010
0100
0000
0010
0100
0010
0000
0100
0010
0100
0000
,  // measure 13
0001
0100
0001
0000
1000
0010
1000
0000
0001
0100
0001
0100
0001
0000
0100
0000
,  // measure 14
0202
0000
0303
0000
0010
1000
0100
0001
,  // measure 15
2020
0000
3030
0000
0100
0001
0010
1000
,  // measure 16
0001
0100
0001
0000
0202
0000
0000
0303
1000
0010
1000
0000
2020
0000
0000
3030
,  // measure 17
1100
1001
0101
1001
1100
1001
0101
1001
,  // measure 18
0110
1000
0000
0100
0000
0010
0000
0001
0000
1000
0000
0100
0000
0010
0000
0001
,  // measure 19
0010
0100
1000
0001
0010
0100
1000
0001
0010
0100
1000
0001
0010
0100
1000
0000
,  // measure 20
0100
1000
0000
0000
0001
0010
0000
0000
0010
0100
0000
0000
0100
1000
0000
0000
,  // measure 21
0110
0110
0110
0110
,  // measure 22
0011
0011
0011
0011
,  // measure 23
0010
0001
0010
0001
0010
0001
0010
0001
0010
0001
0010
0001
0010
0001
0010
0001
,  // measure 24
0020
0000
0000
0130
1000
0000
0000
1000
0100
0000
0000
0100
1000
0000
0000
1000
,  // measure 25
0100
0000
0000
0100
0010
0000
0000
0010
0100
0000
0000
0100
0010
0000
0000
0010
,  // measure 26
0001
0000
0000
0001
0010
0000
0000
0010
0001
0000
0000
0001
1000
0000
0000
1000
,  // measure 27
0001
0000
0000
0001
1000
0000
0000
1000
0100
0000
0000
0100
1000
0000
0000
1000
,  // measure 28
0100
0000
0000
0100
1000
0100
0010
0001
1000
0100
0010
0001
1000
0100
0010
0001
,  // measure 29
0010
0000
0001
0010
0001
0010
0001
0010
0001
0000
0011
0000
0011
0000
0011
0000
,  // measure 30
0001
0010
0001
0000
1000
0010
1000
0000
0001
0100
0001
0000
1000
0100
1000
0000
,  // measure 31
0100
0000
1000
0100
1000
0100
1000
0100
1000
0000
1100
0000
1100
0000
1100
0000
,  // measure 32
1000
0100
1000
0000
0001
0100
0001
0000
1000
0100
1000
0000
0001
0100
0001
0000
,  // measure 33
0010
0000
0100
0010
0100
0010
0100
0010
0100
0000
0110
0000
0110
0000
0110
0000
,  // measure 34
0010
0100
0010
0000
0100
0010
0100
0000
0010
0100
0010
0000
0100
0010
0100
0000
,  // measure 35
0110
0000
0010
0100
0010
0100
0010
0100
0010
0000
0110
0000
0110
0000
0110
0000
,  // measure 36
0100
0001
0100
0000
0100
1000
0100
0000
0100
0001
0100
0000
0100
1000
0100
0000
,  // measure 37
1000
0100
1000
0100
0010
0001
0010
0001
1000
0001
1000
0001
0100
0010
0100
0010
,  // measure 38
1000
0100
1000
0100
0010
0001
0010
0001
1000
0001
1000
0001
0100
0010
0100
0010
,  // measure 39
1000
0100
1000
0100
1000
0100
1000
0100
0010
0001
0010
0001
0010
0001
0010
0001
,  // measure 40
0010
0001
0010
0001
0010
0001
0010
0001
0010
0001
0010
0001
0010
0001
0010
0001
,  // measure 41
1000
0100
0010
0001
0010
0100
1000
0100
0010
0001
0010
0100
1000
0100
0010
0001
,  // measure 42
0010
0000
0000
0001
0010
0000
0100
0000
1000
0100
0010
0001
0100
0010
1000
0100
,  // measure 43
0010
0001
0100
0010
1000
0100
0010
0001
0100
0010
1000
0100
0010
0001
0100
0010
,  // measure 44
1000
0100
0010
0001
1000
0100
0010
0001
1000
0100
0010
0001
1000
0100
0010
0001
,  // measure 45
1000
0000
0000
0001
0010
0000
0100
0000
0001
0010
0100
1000
0001
0010
0100
1000
,  // measure 46
0001
0010
0100
1000
0001
0010
0100
1000
0010
0100
0001
1000
0100
0010
0001
0100
,  // measure 47
0010
1000
0100
0010
0001
0100
0010
1000
0100
0010
0001
0100
0010
1000
0010
0100
,  // measure 48
0010
1000
0010
0100
0010
1000
0100
0010
0001
0010
0100
0010
0001
0010
0100
0010
,  // measure 49
0001
0100
0001
1000
0001
0100
0001
1000
0001
0010
0100
1000
0001
1000
0100
1000
,  // measure 50
0001
1000
0100
1000
0100
0010
0001
0010
0100
1000
0010
0100
0001
1000
0100
1000
,  // measure 51
0001
1000
0010
1000
0001
0100
0001
1000
0001
0010
0001
0100
0010
1000
0100
0010
,  // measure 52
0100
0000
1000
0100
1000
0100
1000
0100
1000
0000
1001
0000
1100
0000
1001
0000
,  // measure 53
1000
0100
1000
0000
0100
1000
0100
0000
1000
0100
1000
0000
0100
1000
0100
0000
,  // measure 54
0010
0000
0001
0100
0001
0100
0001
0100
0001
0000
1001
0000
0101
0000
1001
0000
,  // measure 55
1000
0100
0010
0000
0001
0100
0010
0000
1000
0100
0001
0000
0001
0100
1000
0000
,  // measure 56
0100
0000
1000
0010
1000
0010
1000
0010
1000
0000
0110
0000
1001
0000
0110
0000
,  // measure 57
1000
0010
0100
0000
0001
0010
0100
0000
1000
0100
0010
0000
0100
1000
0001
0000
,  // measure 58
0100
0000
0001
0010
0001
0010
0001
0010
0001
0000
0001
0100
0001
1000
0100
0010
,  // measure 59
0001
0100
1000
0100
0001
0010
0100
1000
0001
1000
0100
1000
0010
0001
0010
1000
,  // measure 60
0100
1000
0100
1000
0001
0010
0100
1000
0010
0100
0001
0100
0010
1000
0001
0100
,  // measure 61
0010
1000
0100
0010
0100
1000
0010
0100
0001
1000
0100
0010
0001
0100
0010
1000
,  // measure 62
0001
0100
0010
1000
0100
0010
0100
0001
0100
1000
0010
0100
0001
0100
1001
0000
,  // measure 63
2200
0000
0000
0000
,  // measure 64
0000
0000
0000
0000
,  // measure 65
0000
0000
3300
0000
;
