#TITLE:Tracers (4Beat Remix);
#SUBTITLE:;
#ARTIST:Ruffage & Size;
#TITLETRANSLIT:;
#SUBTITLETRANSLIT:;
#ARTISTTRANSLIT:;
#GENRE:;
#CREDIT:Dr.D's friend;
#MENUCOLOR:;
#NEWMETERSYSTEM:NO;
#BANNER:Tracers (4Beat Remix).png;
#BACKGROUND:Tracers (4Beat Remix)-bg.png;
#LYRICSPATH:;
#CDTITLE:./CDTITLES/DanceDanceRevolution X.png;
#MUSIC:Tracers (4Beat Remix).mp3;
#OFFSET:-0.059;
#SAMPLESTART:42.865;
#SAMPLELENGTH:13.720;
#SELECTABLE:YES;
#LISTSORT:;
#BPMS:0.000=140.000;
#STOPS:;
#BGCHANGES:;
#ATTACKS:;

//---------------dance-single - ----------------
#NOTES:
     dance-single:
     :
     Challenge:
     11:
     1.000,0.927,0.526,0.449,1.000: // measure 1
0000
0000
0000
0000
,  // measure 2
0000
1000
0100
0010
0001
0010
0100
1000
0000
0001
0010
0100
1000
0100
0010
0001
,  // measure 3
0000
1000
0010
0100
0001
0100
0010
0001
0000
0001
0010
0100
1000
0100
0010
1000
,  // measure 4
0000
1000
0100
0010
0100
0001
0100
1000
0000
0001
0010
0100
0010
1000
0010
0001
,  // measure 5
0000
1000
0100
0010
0001
0100
0010
1000
0000
1000
0100
1000
0010
0100
0010
1000
,  // measure 6
0000
0001
0010
0001
0100
0010
0100
0001
0000
0100
0001
0100
0010
1000
0010
0100
,  // measure 7
0000
0001
0010
0100
1000
0100
0010
0001
0000
1000
0010
0100
0001
0100
0010
1000
,  // measure 8
0000
1000
0100
0010
0100
0001
0100
0000
2002
0000
0000
0000
3003
0000
0000
0000
,  // measure 9
0220
0000
0000
0330
0000
1001
0110
0000
,  // measure 10
0000
1000
0100
0010
0001
0100
0010
1000
0000
1000
0010
0100
0001
1000
0010
0100
,  // measure 11
0000
1000
0100
0010
0001
0010
0100
1000
0000
0001
0010
0100
1000
0100
0010
0001
,  // measure 12
0000
1000
0010
0100
0001
0100
0010
1000
0000
0001
0100
0010
1000
0010
0100
0001
,  // measure 13
0000
1000
0010
0100
0010
1000
0100
1000
0000
0010
0100
0001
1000
0100
1000
0100
,  // measure 14
0000
0100
1000
0001
1000
0010
0001
0010
0000
1000
0100
1000
0010
0001
0010
0100
,  // measure 15
0000
0001
1000
0100
0010
0001
0100
0010
0000
1000
0100
0010
0001
0010
0100
1000
,  // measure 16
0000
1000
0010
0100
0001
0100
0010
0000
0000
0000
0202
0000
0000
0000
0303
0000
,  // measure 17
2020
0000
3030
0000
0011
1000
0010
0100
,  // measure 18
0000
0001
0010
0100
1000
0100
0010
0001
0000
0001
0010
0100
1000
0100
0010
0001
,  // measure 19
0000
0001
0100
0010
1000
0010
0100
0001
0000
0001
0100
0010
1000
0010
0100
0001
,  // measure 20
0000
0001
0100
0010
0100
1000
0100
0001
0000
0001
0100
0010
0100
1000
0100
0001
,  // measure 21
0000
0001
0010
0100
1000
0010
0100
0001
0000
0100
0010
1000
0100
0010
0001
0100
,  // measure 22
0000
0001
0100
0010
1000
0100
0010
0001
0000
0100
0010
0100
0001
0010
0100
1000
,  // measure 23
0000
0001
0100
0010
1000
0010
0100
0001
0000
1000
0010
0100
0010
1000
0010
0100
,  // measure 24
0000
1000
0100
0010
0100
0001
0000
0000
2020
0000
0000
0000
0000
0000
3030
0000
,  // measure 25
0201
0000
0310
0000
0000
1000
0100
0010
,  // measure 26
0000
0001
0010
0100
1000
0100
0010
0001
0000
0001
0010
0100
1000
0100
0010
0001
,  // measure 27
0000
0001
0100
0010
1000
0010
0100
0001
0000
0001
0100
0010
1000
0010
0100
0001
,  // measure 28
0000
0001
0100
0010
0100
1000
0100
0001
0000
0001
0100
0010
0100
1000
0100
0001
,  // measure 29
0000
0001
0010
0100
1000
0010
0100
0001
0000
0100
0010
1000
0100
0010
0001
0100
,  // measure 30
0000
0001
0100
0010
1000
0100
0010
0001
0000
0100
0010
0100
0001
0010
0100
1000
,  // measure 31
0000
0001
0100
0010
1000
0010
0100
0001
0000
1000
0010
0100
0010
1000
0010
0100
,  // measure 32
0000
1000
0100
0010
0100
0000
0000
0000
2002
0000
0000
0000
3003
0000
0000
0000
,  // measure 33
0022
0033
2200
3300
,  // measure 34
0000
0000
1000
0010
1000
0001
0100
0010
1000
0000
2001
0000
3001
0002
0000
1003
,  // measure 35
0000
0000
0210
0000
0001
0302
0000
1003
0000
0000
1002
0000
0100
0203
0000
0310
,  // measure 36
0000
0000
1002
0000
0100
0203
0000
0310
0000
0000
2001
0000
3010
0020
0000
0130
,  // measure 37
0000
0000
0012
0000
1003
2000
0000
3010
0000
0000
2100
0000
3001
0002
0000
0003
,  // measure 38
1000
0010
1000
0100
0010
0100
1000
0001
0000
0000
2001
0000
3100
0100
0000
1001
,  // measure 39
0000
0000
1020
0000
0130
0100
0000
1010
0000
0000
0201
0000
0310
0010
0000
1010
,  // measure 40
0000
0000
0012
0000
1003
1000
0000
1100
0000
0000
0202
0000
0303
0000
0000
0000
,  // measure 41
0100
0010
0000
0100
0010
0000
0000
0000
0000
0000
0000
0000
0110
0000
0000
0000
,  // measure 42
0000
1000
0100
0010
0001
0010
0100
1000
0000
0001
0100
0010
1000
0100
0010
0001
,  // measure 43
0000
0100
0010
0100
0001
0010
0100
1000
0000
0001
0100
0010
1000
0010
0100
0001
,  // measure 44
0000
1000
0010
0100
0010
1000
0010
0100
0000
1000
0100
0010
0100
0001
0100
0010
,  // measure 45
0000
0001
0010
0100
0010
1000
0010
0100
0000
1000
0010
0100
0010
0001
0010
0100
,  // measure 46
0000
0001
0100
0010
0100
1000
0100
0010
0000
0001
0010
0100
0010
1000
0010
0100
,  // measure 47
0000
1000
0100
0010
0100
0001
0100
0010
0000
1000
0100
0001
0100
1000
0010
0001
,  // measure 48
0000
0001
0010
1000
0100
0001
0100
0000
2002
0000
0000
0000
0000
0000
3003
0000
,  // measure 49
2200
0000
0000
0000
0000
0000
3300
0000
0202
0303
0110
0000
2200
3300
0011
0000
,  // measure 50
1000
0001
1000
0100
0010
0001
0100
0010
0100
0001
1000
0100
1000
0100
0010
0100
,  // measure 51
0001
0100
0010
0100
1000
0100
1000
0010
0001
0010
1000
0010
0001
0010
0001
0010
,  // measure 52
1000
0100
1000
0010
0001
0010
1000
0100
0010
0001
0100
0010
1000
0010
1000
0001
,  // measure 53
0100
0010
1000
0001
0010
0100
0010
0100
0010
0100
1000
0001
1000
0001
1000
0000
,  // measure 54
1100
0010
0101
0010
1100
0001
0101
1000
,  // measure 55
1100
0011
1010
1001
1100
0110
0110
1100
,  // measure 56
1000
0100
1000
0100
1000
0100
1000
0100
1000
0100
1000
0100
1000
0100
1000
0000
,  // measure 57
1100
0000
0110
0000
0011
0000
1001
0000
0000
0011
0000
0000
0110
0000
1100
0000
,  // measure 58
2002
0000
0000
0000
,  // measure 59
0000
0000
0000
3003
;
