#TITLE:TUBTHUMPING;
#SUBTITLE:;
#ARTIST:CHUMBAWAMBA;
#TITLETRANSLIT:;
#SUBTITLETRANSLIT:;
#ARTISTTRANSLIT:;
#GENRE:;
#CREDIT:;
#MENUCOLOR:;
#METERTYPE:DDR;
#BANNER:TUBTHUMPING.png;
#BACKGROUND:TUBTHUMPING-bg.png;
#LYRICSPATH:TUBTHUMP-lyrics.lrc;
#CDTITLE:!tsm-cdtitle.png;
#MUSIC:TUBTHUMPING.mp3;
#OFFSET:-5.252;
#SAMPLESTART:8.400;
#SAMPLELENGTH:12.000;
#SELECTABLE:YES;
#LISTSORT:;
#DISPLAYBPM:104.000;
#BPMS:0.000=103.800;
#STOPS:;
#BGCHANGES:;
#ATTACKS:;

//---------------dance-single - TimeSpaceMage----------------
#NOTES:
     dance-single:
     TimeSpaceMage:
     Medium:
     5:
     0.342,0.339,0.146,0.053,0.020: // measure 1
0000
0000
0000
0000
,  // measure 2
1000
0100
1000
0100
1000
0000
0100
0100
,  // measure 3
0110
0000
0001
0001
0100
0000
0100
0100
,  // measure 4
0010
0000
0010
0010
1000
0000
0100
0100
,  // measure 5
0110
0000
0001
0001
0100
0000
0100
0100
,  // measure 6
0010
0000
0010
0010
1000
0000
0100
0010
,  // measure 7
0110
0000
0010
0001
0001
0000
0001
1000
,  // measure 8
1000
0000
1000
0010
0010
0000
0010
0100
,  // measure 9
0110
0000
0100
0001
0001
0000
0001
1000
,  // measure 10
1000
0000
1000
0010
0110
0000
0000
0000
,  // measure 11
0100
0001
0100
0001
0100
0000
0100
0000
,  // measure 12
0010
1000
0010
1000
0010
0000
0010
0000
,  // measure 13
1000
0001
1000
0001
1000
0000
0001
0000
,  // measure 14
0001
1000
0001
1000
0001
0000
0000
0100
,  // measure 15
0010
1000
0000
1000
0010
0100
0000
0001
,  // measure 16
0010
0100
0000
0100
0010
0001
0000
0100
,  // measure 17
0010
0010
1000
1000
0100
0100
0000
0010
,  // measure 18
0001
0100
0100
0010
0010
1000
0000
0000
,  // measure 19
0002
0000
0000
0000
0000
0000
0000
0000
1000
0000
0000
1000
0003
0000
2000
0000
,  // measure 20
0000
0000
0000
0000
0000
0000
0000
0000
0001
0000
0000
0001
3000
0000
0002
0000
,  // measure 21
0000
0000
0000
0000
0000
0000
0000
0000
1000
0000
0000
1000
0003
0000
2000
0000
,  // measure 22
0000
0000
0000
0000
3000
0100
0010
0100
,  // measure 23
0110
0000
0001
0100
0100
0000
0010
1000
,  // measure 24
1000
0000
1000
0100
0100
0000
0010
0001
,  // measure 25
0011
0000
0001
0100
0100
0000
0010
1000
,  // measure 26
1000
0000
1000
0100
0100
0000
0010
0010
,  // measure 27
0011
0000
0001
0001
1000
0000
1000
1000
,  // measure 28
0010
0000
0010
0010
0100
0000
0100
0100
,  // measure 29
0101
0000
0001
1000
1000
0000
1000
0010
,  // measure 30
0010
0000
0010
0100
0100
0001
0101
1000
,  // measure 31
1001
0000
0000
0000
;

//---------------dance-single - TimeSpaceMage----------------
#NOTES:
     dance-single:
     TimeSpaceMage:
     Hard:
     8:
     0.540,0.495,0.359,0.000,0.532: // measure 1
0000
0000
0000
0000
0000
0000
0000
0000
0000
0000
0000
0000
0000
0000
0000
0000
0000
0000
0010
0000
0000
0001
0000
0100
,  // measure 2
0001
1000
1000
0100
0011
0110
1100
0000
,  // measure 3
0000
0100
1000
0100
0010
0001
0010
0000
0000
0000
0001
0100
0000
0100
0010
0100
,  // measure 4
0010
0000
0010
1000
0000
0000
1000
0000
1100
0000
0110
0000
0011
0000
0000
0000
,  // measure 5
0000
0001
0100
0001
0010
0100
0010
0000
0000
0000
0100
1000
0000
1000
0100
1000
,  // measure 6
0100
0000
0100
0010
0000
0000
0010
0000
0011
0000
1100
0000
0101
0000
0000
0000
,  // measure 7
0000
0100
1000
0100
0010
0100
0001
0000
0000
0000
0001
1000
0000
0100
1000
0010
,  // measure 8
0100
0000
0100
0010
0000
0000
1000
0000
1100
0000
0101
0000
1010
0000
0000
0000
,  // measure 9
0000
1000
0010
1000
0001
0100
1000
0000
0000
0000
1000
0100
0000
0100
1000
0100
,  // measure 10
0001
0000
0001
0100
0000
0000
0000
0000
0000
0000
0000
0000
1000
0000
0100
0000
,  // measure 11
0001
0000
1000
0100
0001
0100
0001
0100
,  // measure 12
1000
0010
0001
0010
1000
0000
0001
0100
,  // measure 13
1000
0000
0001
0100
1000
0100
1000
0100
,  // measure 14
0001
0000
0000
0010
0000
0000
1000
0000
0000
0010
0000
0000
0001
0000
0100
1000
0000
0100
0010
0000
0001
0010
0000
0000
,  // measure 15
0000
0000
0001
0100
0000
0100
0010
0000
0010
1000
0000
0000
0000
0000
0100
1000
0000
0001
0100
0000
0010
1000
0000
0000
,  // measure 16
0000
0000
0000
0000
0100
0000
0010
0000
0000
0000
0010
0000
0001
0000
0000
0000
0001
0000
0010
0000
0000
0000
0000
0000
0000
0000
0000
0000
0100
0000
1000
0000
0000
0000
0010
0000
0100
0000
0000
0000
0000
0000
0001
0000
0000
0010
0000
0000
,  // measure 17
0001
0000
0000
1000
0000
0000
0001
0000
0000
0010
0000
0000
0001
0000
0000
0000
0000
0000
0100
0000
0000
0000
0000
0000
0000
0000
0000
0000
0100
0000
0010
0000
0000
0000
0010
0000
1000
0000
0000
0000
0000
0000
0100
0000
0000
1000
0000
0000
,  // measure 18
0100
0000
0010
0001
0010
0100
1000
0000
0000
0000
0000
0000
1000
0000
0100
0000
,  // measure 19
0001
0000
1000
0100
0001
0010
1000
0100
,  // measure 20
0001
0000
0100
1000
0010
0001
0100
1000
,  // measure 21
0010
0000
1000
0100
0001
0010
1000
0100
,  // measure 22
0001
0000
0000
0100
0000
0100
1000
0000
0000
0001
0000
0000
0011
0000
0000
0110
0000
0000
1100
0000
0000
0000
0000
0000
,  // measure 23
0000
0100
1000
0010
0100
0001
0100
0000
0000
0000
0001
0100
0000
0100
0010
0100
,  // measure 24
0010
0000
0010
1000
0000
0000
0100
0000
1001
0000
0110
0000
1001
0000
0000
0000
,  // measure 25
0000
0001
0010
0100
0010
0001
0100
0000
0000
0000
0010
1000
0000
0100
1000
0100
,  // measure 26
1000
0000
1000
0010
0000
0000
0010
0000
0011
0000
1100
0000
0101
0000
0000
0000
,  // measure 27
0000
0001
1000
0010
1000
0001
0010
0000
0000
0000
0010
0100
0000
0100
0001
0100
,  // measure 28
0001
0000
0100
1000
0000
0000
0001
0000
0101
0000
0110
0000
1010
0000
0000
0000
,  // measure 29
0000
1000
0010
0001
1000
0100
0001
0000
0000
0000
0100
0001
0000
0010
0001
0100
,  // measure 30
1000
0000
1000
0100
0000
0000
1000
0000
1100
0000
0101
0000
1001
0000
0000
0000
;
