#TITLE:Space Space Shooter;
#SUBTITLE:Cusimo & Co. Remix;
#ARTIST:Kick & Punch;
#TITLETRANSLIT:;
#SUBTITLETRANSLIT:;
#ARTISTTRANSLIT:;
#GENRE:;
#CREDIT:;
#MENUCOLOR:;
#METERTYPE:DDR;
#BANNER:Space Space Shooter (Cusimo & Co. Remix).png;
#BACKGROUND:Space Space Shooter (Cusimo & Co. Remix)-bg.png;
#LYRICSPATH:;
#CDTITLE:!tsm_kb-cdtitle.png;
#MUSIC:Space Space Shooter (Cusimo & Co. Remix).mp3;
#OFFSET:-0.030;
#SAMPLESTART:27.960;
#SAMPLELENGTH:13.440;
#SELECTABLE:YES;
#LISTSORT:;
#BPMS:0.000=179.989;
#STOPS:;
#BGCHANGES:;
#ATTACKS:;

//---------------dance-single - TimeSpaceMage----------------
#NOTES:
     dance-single:
     TimeSpaceMage:
     Challenge:
     13:
     1.000,1.000,1.000,0.218,1.000: // measure 1
0000
0000
0000
0000
,  // measure 2
0000
0000
0000
0000
,  // measure 3
1000
0000
0100
1000
0011
0000
0001
0000
1010
0000
1000
0000
0011
0000
0010
0000
,  // measure 4
1001
0000
0100
0010
1001
0000
0100
0000
1100
0000
0001
0000
0011
0000
1000
0000
,  // measure 5
2020
0000
0000
0000
3030
0000
0000
0101
,  // measure 6
1010
1100
0101
0011
1001
0110
0000
1010
,  // measure 7
0101
0011
1010
0110
1001
0000
0000
0011
,  // measure 8
0110
0110
1001
1100
0011
0011
1010
1010
,  // measure 9
0101
1001
0011
0000
1100
0000
0000
0000
,  // measure 10
0011
1001
0101
0011
1001
0101
0000
1010
,  // measure 11
1100
1001
1010
0000
1100
0000
0000
0110
,  // measure 12
1010
1010
0101
0101
0110
0110
1010
0101
,  // measure 13
0011
0000
1100
0000
1001
0000
0110
0000
1000
0100
0010
0001
1000
0100
0010
0001
,  // measure 14
1000
0100
0000
0010
0000
0000
1000
0100
0000
0001
0000
0000
1000
0010
0000
0100
0000
0000
1000
0010
0000
0001
0000
0000
,  // measure 15
0100
0001
0000
0010
0000
0000
0100
0001
0000
1000
0000
0000
0100
0010
0000
1000
0000
0000
0100
0010
0000
0001
0000
0000
,  // measure 16
1000
0100
0010
0001
1000
0100
0010
0000
0000
0220
0000
0000
0000
0000
0000
0000
0000
0000
0330
0000
0000
0000
0000
0000
,  // measure 17
0001
0010
0100
1000
0001
0010
0100
0000
0000
0220
0000
0000
0000
0000
0000
0000
0000
0000
0330
0000
0000
0000
0000
0000
,  // measure 18
0001
0010
0000
0100
0000
0000
0001
0010
0000
1000
0000
0000
0001
0100
0000
0010
0000
0000
0101
0000
0000
0010
1000
0000
,  // measure 19
0100
0000
0000
0010
1000
0000
0001
0000
0000
0001
0000
0000
0010
0100
0000
0011
0000
0000
1100
0000
0000
0110
0000
0000
,  // measure 20
0001
0010
0000
0100
0000
0000
0001
0010
0000
1000
0000
0000
0001
0100
0000
1010
0000
0000
0101
0000
0000
0110
0000
0000
,  // measure 21
2002
0000
0000
3003
,  // measure 22
1000
0100
1000
0100
0010
0001
0010
0001
0100
0010
0100
0010
1000
0001
1000
0001
,  // measure 23
0010
0100
0010
0100
1000
0010
1000
0010
0100
0001
0100
0001
0010
1000
0100
0010
,  // measure 24
0001
0010
0100
0010
0100
0001
0010
0001
0010
0100
1000
0100
1000
0010
1000
0010
,  // measure 25
1000
0100
0001
0100
0001
0010
0100
0010
0100
0001
1000
0001
1000
0100
0010
0001
,  // measure 26
1000
0100
1000
0100
0010
0100
0010
0100
0001
0010
0001
0010
1000
0010
1000
0010
,  // measure 27
0100
1000
0001
0100
0001
0100
1000
0100
1000
0010
0001
0010
0001
0010
0100
0010
,  // measure 28
0001
1000
0001
1000
0001
0010
0001
0010
0001
0100
0001
0100
0001
0010
0100
0010
,  // measure 29
1000
0100
1000
0100
1000
0010
1000
0010
1000
0001
1000
0001
1000
0100
0010
0001
,  // measure 30
0110
0000
1010
0000
0101
0000
0011
0000
0010
0100
0000
0110
0000
0000
1001
0000
,  // measure 31
1100
0000
1100
0000
0110
0000
0011
0000
1100
1000
0000
1100
0000
0000
0110
0000
,  // measure 32
0011
0000
0011
0000
1010
0000
0110
0000
0011
0010
0000
0110
0000
0000
1010
0000
,  // measure 33
0101
0011
1010
0220
0000
0000
0330
0000
,  // measure 34
1100
0000
0110
0000
1001
0000
0101
0000
0100
1000
0000
1100
0000
0000
0011
0000
,  // measure 35
1010
0000
1010
0000
1100
0000
0101
0000
1010
0010
0000
1010
0000
0000
1100
0000
,  // measure 36
0101
0000
0101
0000
0110
0000
1100
0000
0101
0100
0000
1100
0000
0000
0110
0000
,  // measure 37
1001
0101
0110
2200
0000
0000
3300
1001
,  // measure 38
1101
0011
0110
1010
1011
0000
0000
0110
,  // measure 39
1101
0011
0110
1001
0111
0000
0000
0000
,  // measure 40
0110
0101
0110
0101
1100
1100
0011
1010
,  // measure 41
0111
0110
1010
0011
0111
0000
0000
0000
,  // measure 42
1100
1100
0011
1001
0101
0101
0110
1010
,  // measure 43
1001
1001
0110
1011
0000
0000
0000
1010
,  // measure 44
0111
0000
1101
0000
0110
0000
1100
0000
1011
0000
1110
0000
0001
0000
M2MM
M0MM
,  // measure 45
M0MM
M0MM
M0MM
M0MM
M0MM
M0MM
M0MM
M0MM
M0MM
M0MM
M0MM
M0MM
M3MM
0000
0000
0000
,  // measure 46
1000
0100
0000
0010
0000
0000
1000
0100
0000
0001
0000
0000
1000
0010
0000
0100
0000
0000
1000
0010
0000
0001
0000
0000
,  // measure 47
0100
0001
0000
0010
0000
0000
0100
0001
0000
1000
0000
0000
0100
0010
0000
1000
0000
0000
0100
0010
0000
0001
0000
0000
,  // measure 48
1000
0100
0010
0001
1000
0100
0010
0000
0000
0220
0000
0000
0000
0000
0000
0000
0000
0000
0330
0000
0000
0000
0000
0000
,  // measure 49
0001
0010
0100
1000
0001
0010
0100
0000
0000
0220
0000
0000
0000
0000
0000
0000
0000
0000
0330
0000
0000
0000
0000
0000
,  // measure 50
0001
0010
0000
0100
0000
0000
0001
0010
0000
1000
0000
0000
0001
0100
0000
0010
0000
0000
0101
0000
0000
0010
1000
0000
,  // measure 51
0100
0000
0000
0010
1000
0000
0001
0000
0000
0001
0000
0000
0010
0100
0000
0011
0000
0000
1100
0000
0000
0110
0000
0000
,  // measure 52
0001
0010
0000
0100
0000
0000
0001
0010
0000
1000
0000
0000
0001
0100
0000
1010
0000
0000
0101
0000
0000
0110
0000
0000
,  // measure 53
2002
0000
0000
3003
,  // measure 54
0010
1000
0010
1000
0100
0001
0100
0001
1000
0100
1000
0100
0010
0001
0010
0001
,  // measure 55
0100
1000
0100
1000
0010
0100
0010
0100
1000
0001
1000
0001
0100
0010
1000
0100
,  // measure 56
0001
0100
1000
0100
1000
0001
0100
0001
0100
1000
0100
1000
0010
0100
0010
0100
,  // measure 57
0010
1000
0001
1000
0001
0100
1000
0100
1000
0001
0010
0001
0010
1000
0100
0001
,  // measure 58
0010
1000
0010
1000
0100
1000
0100
1000
0001
0100
0001
0100
0010
0100
0010
0100
,  // measure 59
1000
0010
0001
1000
0001
1000
0010
1000
0010
0100
0001
0100
0001
0100
1000
0100
,  // measure 60
0001
0010
0001
0010
0001
0100
0001
0100
0001
1000
0001
1000
0001
0100
1000
0100
,  // measure 61
0010
1000
0010
1000
0010
0100
0010
0100
0010
0001
0010
0001
0010
1000
0100
0001
,  // measure 62
0100
0010
0100
0010
1000
0001
1000
0001
0010
1000
0010
1000
0100
0001
0100
0001
,  // measure 63
1000
0010
1000
0010
0100
1000
0100
1000
0010
0001
0010
0001
1000
0100
0010
1000
,  // measure 64
0001
1000
0010
1000
0010
0001
1000
0001
1000
0010
0100
0010
0100
1000
0100
1000
,  // measure 65
0100
0010
0001
0010
0001
1000
0010
1000
0010
0001
0100
0001
0100
0010
1000
0001
,  // measure 66
0100
0010
0100
0010
1000
0010
1000
0010
0001
1000
0001
1000
0100
1000
0100
1000
,  // measure 67
0010
0100
0001
0010
0001
0010
0100
0010
0100
1000
0001
1000
0001
1000
0010
1000
,  // measure 68
0001
0100
0001
0100
0001
1000
0001
1000
0001
0010
0001
0010
0001
1000
0010
1000
,  // measure 69
0100
0010
0100
0010
0100
1000
0100
1000
0100
0001
0100
0001
0100
0010
1000
0001
,  // measure 70
0110
0000
1010
0000
0101
0000
0011
0000
0010
0100
0000
0110
0000
0000
1001
0000
,  // measure 71
1100
0000
1100
0000
0110
0000
0011
0000
1100
1000
0000
1100
0000
0000
0110
0000
,  // measure 72
0011
0000
0011
0000
1010
0000
0110
0000
0011
0010
0000
0110
0000
0000
1010
0000
,  // measure 73
0101
0011
1010
0220
0000
0000
0330
0000
,  // measure 74
1100
0000
0110
0000
1001
0000
0101
0000
0100
1000
0000
1100
0000
0000
0011
0000
,  // measure 75
1010
0000
1010
0000
1100
0000
0101
0000
1010
0010
0000
1010
0000
0000
1100
0000
,  // measure 76
0101
0000
0101
0000
0110
0000
1100
0000
0101
0100
0000
1100
0000
0000
0110
0000
,  // measure 77
1001
0101
0110
2200
0000
0000
3300
0000
,  // measure 78
1111
0000
0000
0000
;
