#TITLE:She is my wife;
#SUBTITLE:;
#ARTIST:SUPER STAR -MITSURU-;
#TITLETRANSLIT:;
#SUBTITLETRANSLIT:;
#ARTISTTRANSLIT:;
#GENRE:ONLY ONE BALLAD;
#CREDIT:;
#MENUCOLOR:;
#METERTYPE:DDR;
#BANNER:She is my wife.png;
#BACKGROUND:She is my wife-bg.png;
#LYRICSPATH:;
#CDTITLE:sheismycdtitle.png;
#MUSIC:She is my wife.mp3;
#OFFSET:-0.380;
#SAMPLESTART:45.200;
#SAMPLELENGTH:13.760;
#SELECTABLE:YES;
#LISTSORT:;
#DISPLAYBPM:85.000:170.000;
#BPMS:0.000=85.000,64.000=170.000;
#STOPS:64.000=1.060
;
#BGCHANGES:;
#ATTACKS:;

//---------------dance-single - ----------------
#NOTES:
     dance-single:
     :
     Medium:
     5:
     0.301,0.367,0.197,0.223,0.009: // measure 1
0000
0000
0000
0000
,  // measure 2
0000
0000
0000
0000
,  // measure 3
0000
0000
0000
0000
,  // measure 4
0000
0000
0000
0000
,  // measure 5
0000
0000
0000
0000
,  // measure 6
0000
0000
0000
0000
,  // measure 7
0000
0000
0000
0000
,  // measure 8
0000
0000
0000
0000
,  // measure 9
1000
0000
0000
2000
0100
3100
0010
0000
,  // measure 10
0001
0000
0000
0002
0100
0103
0010
0000
,  // measure 11
0100
0000
0000
0200
0000
0010
0310
0000
,  // measure 12
1001
1000
0010
0100
,  // measure 13
0001
0000
0000
0001
0020
0000
0000
0130
,  // measure 14
0100
0000
0000
0100
2000
0000
3001
0000
,  // measure 15
1001
0000
0000
0001
0000
0100
0010
0100
,  // measure 16
0002
0000
0000
0000
0000
0000
0000
0000
0000
0000
0000
0000
0000
0000
0000
0000
0000
0000
0000
0000
0000
0000
0000
0000
0000
0000
0000
0000
0000
0000
0000
0000
2000
0000
0000
0000
0000
0000
0000
0000
0000
0000
0000
0000
0000
0000
0000
0000
0000
0000
0000
0000
0000
0000
0000
0000
0000
0000
0000
0000
0000
0000
0000
3003
,  // measure 17
0000
2200
0000
0000
,  // measure 18
3300
2002
0000
0000
,  // measure 19
3003
0202
0000
0000
,  // measure 20
0303
0000
0100
0100
0100
0000
0010
0000
,  // measure 21
1001
1000
0100
1000
,  // measure 22
0100
0001
0100
0001
,  // measure 23
0100
0000
1000
0001
1000
0000
0001
1000
,  // measure 24
0001
0101
0000
1010
,  // measure 25
0000
0110
0000
0000
,  // measure 26
0000
1001
0000
1000
,  // measure 27
0001
0000
0100
0000
0010
0100
0001
0000
,  // measure 28
1000
0000
1100
0000
0000
0000
0010
0100
,  // measure 29
0010
0001
1000
1001
,  // measure 30
0000
1100
0000
0010
,  // measure 31
0001
0010
0100
0000
0100
0000
0100
0000
,  // measure 32
1000
0010
0100
0000
0020
0000
0001
0000
,  // measure 33
0100
1030
1000
0001
,  // measure 34
1000
1100
0000
0011
,  // measure 35
0000
1010
0000
0101
,  // measure 36
1000
0000
2002
0000
0000
0000
0000
0003
,  // measure 37
0000
0200
0000
0000
0000
0000
0000
0000
,  // measure 38
3300
0000
1001
0000
0000
0100
0000
0100
,  // measure 39
0010
0100
0000
0001
0000
1000
0000
0001
,  // measure 40
0000
1000
0100
0000
0000
0100
0000
0100
,  // measure 41
0010
0100
0000
1000
0000
0001
0000
1000
,  // measure 42
0000
0001
0100
0000
0000
1000
0000
0001
,  // measure 43
0000
0100
0010
0100
0000
0001
0000
1000
,  // measure 44
0000
0010
0200
0010
0000
0010
0000
0001
,  // measure 45
0000
0001
0000
0010
0000
0010
0000
1000
,  // measure 46
0300
1000
0200
0000
0000
0000
0000
0000
,  // measure 47
0300
0002
0000
0000
,  // measure 48
0003
0000
1000
0100
0001
0000
1000
0000
,  // measure 49
0001
0100
0001
0010
,  // measure 50
1000
0000
0100
0010
1000
0000
0100
0000
,  // measure 51
1000
0010
0001
0100
,  // measure 52
1000
1010
0100
0011
,  // measure 53
0000
1000
0110
0001
,  // measure 54
0000
0000
1000
0000
0000
0001
0010
0100
,  // measure 55
1000
1000
0001
0100
,  // measure 56
0010
2200
3000
0002
,  // measure 57
0003
0000
2000
0000
3300
0000
0001
1000
,  // measure 58
0001
0200
0010
0010
,  // measure 59
0310
1000
0200
0000
0010
0000
0010
0000
,  // measure 60
0310
0001
0100
0010
0100
0000
0100
0010
,  // measure 61
0100
0000
0000
0000
0001
0000
0000
0001
0000
0000
0001
0000
1000
0000
0000
1000
,  // measure 62
0000
1000
0000
0000
0000
0000
0000
0000
;

//---------------dance-single - ----------------
#NOTES:
     dance-single:
     :
     Hard:
     8:
     0.464,0.630,0.386,0.163,0.082: // measure 1
0000
0000
0000
0000
,  // measure 2
0000
0000
0000
0000
,  // measure 3
0000
0000
0000
0000
,  // measure 4
0000
0000
0000
0000
,  // measure 5
0000
0000
0000
0000
,  // measure 6
0000
0000
0000
0000
,  // measure 7
0000
0000
0000
0000
,  // measure 8
0000
0000
0000
0000
,  // measure 9
1001
0000
0001
0100
1000
0000
0100
0000
0010
0000
1000
0100
0001
0000
0100
0000
,  // measure 10
0110
0000
1000
0010
0001
0000
0010
0000
0100
0000
0001
0010
1000
0000
0010
0000
,  // measure 11
2002
0000
3003
0011
0110
1100
1001
0011
,  // measure 12
0110
1000
0010
0001
,  // measure 13
0100
0000
1000
0000
0010
0000
0100
1000
0100
0000
1000
0000
0100
0000
0010
0001
,  // measure 14
0010
0000
0001
0000
0100
0000
0010
0100
0010
0000
0000
1000
0000
0000
0001
0000
,  // measure 15
1001
0000
0100
0000
0001
0000
0100
0000
1000
0000
0100
0000
0001
0000
0100
0010
,  // measure 16
0100
1000
0001
1000
2002
0000
0000
0000
,  // measure 17
0000
3003
0000
0000
0000
0000
0000
0000
0000
0000
0000
0000
0000
0000
0000
0000
2200
0000
0000
0000
0000
0000
0000
0000
0000
0000
0000
0000
0000
0000
0000
0000
0000
0000
0000
0000
0000
0000
0000
0000
0000
0000
0000
0000
0000
0000
0000
0000
0000
0000
0000
0000
0000
0000
0000
0000
0000
0000
0000
0000
0000
0000
0000
0000
,  // measure 18
3300
0202
0000
0000
,  // measure 19
0303
2002
0000
0000
,  // measure 20
3003
0000
0100
0100
0100
0000
0100
0010
,  // measure 21
1001
0000
0001
0100
0001
0000
1000
0100
,  // measure 22
1000
0000
0001
0010
0001
0000
1000
0010
,  // measure 23
1000
0000
0001
1000
0100
0010
0001
0100
,  // measure 24
0010
0000
1000
0000
0001
0000
0000
0010
0000
0000
0100
0000
1000
0000
0000
0001
,  // measure 25
0000
0010
2002
0000
0000
0000
0000
0000
,  // measure 26
3003
0000
1001
0000
0000
0001
1000
0100
,  // measure 27
0010
0001
0100
0000
0100
0010
1000
0000
,  // measure 28
0001
0000
0110
0000
0000
0010
1000
0100
,  // measure 29
0010
0001
0100
0000
0010
0000
1001
0000
,  // measure 30
0010
0001
0011
0000
0000
0100
1000
0001
,  // measure 31
0010
0100
1000
0000
0000
0100
0001
1000
,  // measure 32
0010
0100
0001
0000
0100
0001
0010
0100
,  // measure 33
1000
0010
0100
0000
0110
0000
1001
0000
,  // measure 34
0110
0000
0011
0000
1000
0100
1100
0000
,  // measure 35
0001
0000
0100
0000
0101
0000
0000
0000
0010
0000
1000
0000
1010
0000
0000
1000
,  // measure 36
0000
0001
1000
0100
0010
0100
1000
0100
,  // measure 37
0010
0000
0001
0000
0100
0000
0001
0000
0010
0000
0001
0000
0100
0000
0000
0001
,  // measure 38
0000
0100
0110
0000
0000
0010
0000
1000
,  // measure 39
0001
0000
1000
0000
0000
0000
1100
0000
1100
0000
0000
0000
0010
0000
0000
0001
,  // measure 40
0000
0010
0110
0000
0000
0010
0000
0001
,  // measure 41
1000
0000
0001
0000
0000
0000
0101
0000
0101
0000
0000
0000
1000
0000
0000
0010
,  // measure 42
0000
1000
1010
1000
0000
0001
0000
1000
,  // measure 43
0000
0010
0100
0010
0000
1000
0000
0001
,  // measure 44
0000
0100
0010
1000
0010
0100
0001
0010
,  // measure 45
0100
1000
0010
0100
0001
0010
0100
1000
,  // measure 46
0010
0100
0002
0000
0000
0000
0000
0000
,  // measure 47
0000
2000
0000
0000
,  // measure 48
3003
0000
0001
0010
1000
0010
0001
0010
,  // measure 49
1000
0010
0001
0100
0010
1000
0100
0010
,  // measure 50
0001
0000
0100
0010
0001
1000
0010
0100
,  // measure 51
0001
0010
1000
0010
0100
1000
0010
0001
,  // measure 52
0010
0000
0001
0010
0100
1000
0001
0100
,  // measure 53
0010
1000
0100
0010
0001
1000
0010
0100
,  // measure 54
0001
0000
1000
0000
1001
0000
0000
0000
1000
0000
0001
0010
0001
0000
0010
0000
,  // measure 55
0100
1000
1100
0000
1010
0000
0101
0000
,  // measure 56
0011
0000
2001
0000
3010
0010
0002
0000
,  // measure 57
0013
0000
0010
0000
2000
0000
0000
0000
3010
0000
0010
0000
0001
0000
0000
0010
,  // measure 58
0000
1000
1001
0002
0000
0010
0010
1000
,  // measure 59
0000
0103
0010
2000
0000
0010
0010
0001
,  // measure 60
0000
3100
0010
0001
0100
0010
1000
0100
,  // measure 61
0010
0000
0001
0000
0011
0000
0000
0010
0000
0000
0100
0000
1100
0000
0000
0110
,  // measure 62
0000
1001
0000
0000
0000
0000
0000
0000
;
