#TITLE:SUPER STAR;
#SUBTITLE:;
#ARTIST:D.J.RICH feat.Tail Bros.;
#TITLETRANSLIT:;
#SUBTITLETRANSLIT:;
#ARTISTTRANSLIT:;
#GENRE:;
#CREDIT:;
#MENUCOLOR:;
#METERTYPE:DDR;
#BANNER:SUPER STAR.png;
#BACKGROUND:SUPER STAR-bg.png;
#LYRICSPATH:SUPER STAR.lrc;
#CDTITLE:./CDTITLES/DANCE DANCE REVOLUTION SOLO.PNG;
#MUSIC:SUPER STAR.mp3;
#OFFSET:-0.060;
#SAMPLESTART:7.170;
#SAMPLELENGTH:15.000;
#SELECTABLE:YES;
#LISTSORT:;
#DISPLAYBPM:128.000;
#BPMS:0.000=128.020;
#STOPS:;
#BGCHANGES:;
#ATTACKS:;

//---------------dance-single - 5th Mix DB----------------
#NOTES:
     dance-single:
     5th Mix DB:
     Challenge:
     9:
     0.578,0.759,0.119,0.000,0.684: // measure 1
0000
0000
0000
0000
,  // measure 2
0000
0000
0000
0000
,  // measure 3
0000
0000
0000
0000
,  // measure 4
0000
0000
0000
0000
,  // measure 5
1000
0000
0000
0000
0001
0000
0000
0100
0000
0010
0000
1000
0010
0000
0100
0000
,  // measure 6
0001
0000
0000
0000
1000
0000
0000
0100
0000
0010
0000
0001
0010
0000
0100
0000
,  // measure 7
1000
0000
0000
0000
0001
0000
0000
0010
0000
0100
0000
1000
0100
0000
0010
0000
,  // measure 8
0001
0000
0000
1100
0000
0000
0000
0000
,  // measure 9
1010
0000
0011
0000
0000
0001
0100
1000
,  // measure 10
0010
0000
0000
0000
0011
0000
0000
0000
0000
0000
0001
0000
0100
0000
0000
1000
,  // measure 11
0010
0000
1010
0000
0000
1000
0100
0001
,  // measure 12
0010
0100
0000
0100
1000
0000
1000
0001
0000
0001
1000
0000
0000
0000
0000
0000
,  // measure 13
0100
0000
1000
0000
0010
0000
0100
1000
0000
0100
0000
0010
1000
0000
0100
0000
,  // measure 14
0010
0000
0100
0000
1000
0000
0010
0001
0000
0010
0000
0010
1000
0000
0100
0000
,  // measure 15
0100
0000
0001
0000
0010
0000
0100
0001
0000
0100
0000
0010
0001
0000
0100
0000
,  // measure 16
0100
0001
0000
0001
0010
0000
0010
0100
0000
0100
1000
0000
0000
0001
0000
0000
,  // measure 17
0010
0001
0100
0001
0010
0001
0000
0000
,  // measure 18
0000
1000
0100
1000
0010
0100
0000
0000
,  // measure 19
0001
0010
1000
0001
0100
1000
0000
0000
,  // measure 20
0010
1000
0001
0010
0001
1000
0010
0000
,  // measure 21
1000
0000
0000
0000
0001
0000
0000
0010
0000
0100
0000
1000
0100
0000
0010
0000
,  // measure 22
0001
0000
0000
0000
1000
0000
0000
0010
0000
0100
0000
0001
0100
0000
0010
0000
,  // measure 23
1000
0000
0000
0000
0001
0000
0000
0100
0000
0010
0000
1000
0010
0000
0100
0000
,  // measure 24
0001
0000
0000
1010
0000
0000
0000
0000
,  // measure 25
0011
0000
1010
0000
0000
1000
0100
0001
,  // measure 26
0010
0000
0000
0000
1010
0000
0000
0000
0000
0000
1000
0000
0100
0000
0000
0001
,  // measure 27
0010
0000
0011
0000
0000
0001
0100
1000
,  // measure 28
0010
0100
0000
0100
0001
0000
0001
1000
0000
1000
0001
0000
0000
0000
0000
0000
,  // measure 29
0100
0000
0001
0000
0010
0000
0100
0001
0000
0100
0000
0010
0001
0000
0100
0000
,  // measure 30
0010
0000
0100
0000
0001
0000
0010
1000
0000
0010
0000
0010
0001
0000
0100
0000
,  // measure 31
0100
0000
1000
0000
0010
0000
0100
1000
0000
0100
0000
0010
1000
0000
0100
0000
,  // measure 32
0100
1000
0000
1000
0010
0000
0010
0100
0000
0100
0001
0000
0000
1000
0000
0000
,  // measure 33
0010
1000
0100
1000
0010
1000
0100
0000
,  // measure 34
0000
0010
0000
0001
0010
0100
1000
0000
,  // measure 35
1000
0010
0001
1000
0100
0001
0010
0000
,  // measure 36
0001
1000
0001
1000
0001
1000
0001
1000
0001
1000
0001
1000
0001
1000
0100
0010
,  // measure 37
0001
0010
0001
1000
0010
0000
0010
0100
0000
0001
0100
0001
0010
0100
1000
0010
,  // measure 38
1000
0010
1000
0001
0010
0000
0010
0100
0000
1000
0100
1000
0010
0100
0001
0010
,  // measure 39
0001
0100
0001
1000
0100
0000
0100
0010
0000
0001
0010
0001
0100
0010
1000
0100
,  // measure 40
1000
0000
0001
0000
0000
0000
0000
0000
0000
0000
1000
0001
1000
0001
0100
0010
,  // measure 41
1000
0010
1000
0001
0010
0000
0010
0100
0000
1000
0100
1000
0010
0100
0001
0010
,  // measure 42
0001
0010
0001
1000
0010
0000
0010
0100
0000
0001
0100
0001
0010
0100
1000
0010
,  // measure 43
1000
0100
1000
0001
0100
0000
0100
0010
0000
1000
0010
1000
0100
0010
0001
0100
,  // measure 44
0001
1000
0001
0010
0001
0000
1000
0100
1000
0001
1000
0000
0010
0100
0001
1000
,  // measure 45
0100
0000
0000
0000
;

//---------------dance-single - 5th Mix DB----------------
#NOTES:
     dance-single:
     5th Mix DB:
     Edit:
     9:
     0.658,0.759,0.107,0.000,0.756:
0000
0000
0000
0000
,
0000
0000
0000
0000
,
0000
0000
0000
0000
,
0000
0000
0000
0000
,
0001
0100
0010
0000
0000
0000
0000
0000
1000
0100
0010
0000
0000
0000
0000
0000
,
0001
0100
0010
0000
1000
0100
0010
0000
0001
0010
0100
0001
1000
0100
0010
0000
,
0000
0001
1000
0000
0100
0010
0001
0000
,
0010
0000
0010
0000
0010
1000
0100
0000
,
1000
0100
0010
0000
1000
0100
0001
0000
1000
0100
1000
0000
1000
0100
0010
0000
,
1000
0100
0001
0000
1000
0100
1000
0000
1000
0100
0010
0000
1001
0000
0000
0000
,
0001
0010
0100
0000
0001
0010
1000
0000
0001
0010
0001
0000
0001
0010
0100
0000
,
0001
0010
1000
0000
0001
0010
0001
0000
0001
0010
0100
0000
1001
0000
0000
0000
,
0010
1000
0001
0010
0100
1000
0001
0000
0000
0000
0100
0000
0100
0000
0000
0000
,
0010
1000
0001
0010
0100
1000
0001
0000
0000
0000
0010
0000
0010
0000
0000
0000
,
0000
0001
0010
0100
1000
0100
0010
0001
,
1000
0000
0000
0000
0000
0000
0010
0000
0100
0000
0000
0010
0000
0000
0000
0000
,
0001
0100
0010
0000
0001
0100
0010
0000
0001
0100
1000
0000
0000
0000
0000
0000
,
0000
0000
1000
0100
0010
1000
0100
0010
1000
0100
0001
0000
0000
0000
0000
0000
,
0010
0001
0010
0000
0001
0010
0100
0000
0010
0100
1000
0000
0000
0000
0000
0000
,
0010
1000
0100
0010
1000
0100
0010
1000
0100
0010
1000
0100
0001
0000
0000
0000
,
1000
0001
0100
0000
1000
0001
0010
0000
1000
0001
0100
0000
1000
0001
0010
0000
,
1000
0001
0100
0000
1000
0001
0010
0000
1000
0001
0100
0000
1001
0000
0000
0000
,
0001
1000
0010
0000
0001
1000
0100
0000
0001
1000
0010
0000
0001
1000
0100
0000
,
0001
1000
0010
0000
0001
1000
0100
0000
0001
1000
0010
0100
0010
0000
0010
0000
,
1000
0100
0010
0001
0010
0000
0000
0000
1001
0000
0110
0000
1001
0000
0000
0000
,
0001
0100
0010
1000
0100
0000
0000
0000
0100
0000
1100
0000
1001
0000
0000
0000
,
0001
0100
0001
0000
1000
0100
1000
0000
0001
0100
0001
0000
1000
0100
1000
0000
,
0001
0100
0001
0010
0001
0100
0001
0010
0001
0100
0001
0010
0001
0100
0001
0010
,
0100
0000
0000
0000
0100
0000
0000
0010
0000
0000
0100
0000
0001
0000
0000
0000
,
0100
0000
0100
0000
0100
0000
0000
0001
0000
0000
0100
0000
1000
0000
0000
0000
,
1000
0100
0010
0001
0100
0000
1000
0000
0010
0001
1000
0001
1000
0000
0100
0000
,
0001
0100
0010
1000
0001
0000
1000
0100
0010
0001
1000
0001
0100
0000
0010
0000
,
0000
0000
0001
0100
0010
0000
0001
0100
1000
0000
1000
0001
1000
0000
0000
0000
,
0000
0000
1000
0100
0000
0000
1000
0100
0010
0000
1000
0100
0001
0000
0000
0000
,
0000
0000
0010
0001
1000
0000
0010
0001
1000
0000
0010
0001
1000
0000
0000
0000
,
0000
0000
0000
0000
0000
0000
0000
0000
0000
0000
0100
0010
1000
0001
0010
0100
,
1000
0000
0100
0000
1000
0100
0000
0010
0000
0001
0000
0010
0100
0000
1000
0000
,
0001
0000
0010
0000
0100
1000
0000
0010
0000
1000
0000
0010
0100
0000
0001
0000
,
0010
0000
0100
0000
1000
0100
0000
1000
0000
0010
0000
0100
0001
0000
1000
0000
,
0001
0000
0001
0000
0000
0000
0000
0000
0000
0010
1000
0100
0010
0000
0001
0000
,
1000
0100
0010
0000
1000
0100
0010
0000
1000
0100
0010
0000
0100
1000
0001
1000
,
0001
0100
0010
0000
0001
0100
0010
0000
0001
0010
0100
1000
0001
0000
0000
0000
,
1000
0010
1000
0010
1000
0000
0001
0000
0010
0000
0000
0100
0000
0000
0001
0000
,
1000
0010
1000
0001
1000
0000
0001
0010
0000
0000
0100
0000
1000
0000
0001
0000
,
0011
0000
0000
0000
;
