#TITLE:SHOOTING STAR;
#SUBTITLE:;
#ARTIST:BANG;
#TITLETRANSLIT:;
#SUBTITLETRANSLIT:;
#ARTISTTRANSLIT:;
#GENRE:;
#CREDIT:;
#MENUCOLOR:;
#METERTYPE:DDR;
#BANNER:SHOOTING STAR.png;
#BACKGROUND:SHOOTING STAR-bg.png;
#LYRICSPATH:;
#CDTITLE:./CDTITLES/DANCE MANIA SPEED.PNG;
#MUSIC:SHOOTING STAR.mp3;
#OFFSET:-0.888;
#SAMPLESTART:58.320;
#SAMPLELENGTH:12.000;
#SELECTABLE:YES;
#LISTSORT:;
#DISPLAYBPM:170.000;
#BPMS:0.000=170.200;
#STOPS:;
#BGCHANGES:;
#ATTACKS:;

//---------------dance-single - ----------------
#NOTES:
     dance-single:
     :
     Challenge:
     9:
     0.791,0.730,0.417,0.235,0.155: // measure 1
1000
0100
0000
0200
0010
0000
0310
0001
,  // measure 2
1000
0010
0000
0020
1000
0000
1030
0000
,  // measure 3
1000
0010
0001
0010
0100
0001
0100
0010
,  // measure 4
1000
0100
1000
0100
0010
0001
0010
0001
,  // measure 5
0100
0010
1000
0200
0000
1300
0001
0100
,  // measure 6
0010
1000
0001
2000
0001
0000
3001
1000
,  // measure 7
0100
0010
0001
0010
0100
1000
0100
1000
,  // measure 8
0020
1000
2000
3030
,  // measure 9
1010
1000
0010
1000
0010
0100
0001
0100
,  // measure 10
0001
1000
0001
1000
0100
0010
0001
0010
,  // measure 11
0100
1000
0010
0100
0001
0010
0100
1000
,  // measure 12
0010
0100
0001
0010
0200
0000
1300
0020
,  // measure 13
0000
2030
0000
3001
0010
0100
1000
0100
,  // measure 14
1000
0100
0010
0001
0100
0010
1000
0001
,  // measure 15
1000
0100
0001
0100
1000
0010
0001
0010
,  // measure 16
1000
0010
0001
0010
0100
0001
0100
0010
,  // measure 17
2020
3030
0101
0110
,  // measure 18
1000
0001
0100
0010
1000
0001
0100
0010
,  // measure 19
1000
0100
0010
0001
1000
0100
0010
0002
,  // measure 20
0000
2000
0000
3003
1000
0100
0000
1100
,  // measure 21
0000
1010
0000
1001
0000
0101
0000
0010
,  // measure 22
1000
0100
0000
0000
1000
0010
1000
0100
,  // measure 23
0000
1100
0000
1010
0000
1001
0000
0102
,  // measure 24
0000
0200
0000
0303
0000
0100
0000
1001
,  // measure 25
0000
1100
0000
0101
0000
2002
0000
3003
,  // measure 26
1000
0100
1000
0001
0100
0001
1000
0001
,  // measure 27
1000
0010
0100
0010
1000
0010
0100
0001
,  // measure 28
0100
1000
0100
0001
1000
0100
0001
0100
,  // measure 29
1000
0100
0010
0100
1000
0001
0010
0100
,  // measure 30
1000
0100
1000
0100
0010
0100
0010
0001
,  // measure 31
0010
0100
0010
0100
1000
0001
1000
0001
,  // measure 32
0010
0200
0000
0000
1300
0001
0000
1001
,  // measure 33
0000
1010
0000
0011
0000
1001
0000
0001
,  // measure 34
0100
0001
0000
0000
0010
1000
0000
1100
,  // measure 35
0000
0101
0000
0011
0000
1010
1000
0100
,  // measure 36
2000
0001
0001
0000
0001
0001
0001
3001
,  // measure 37
1000
0001
0100
0000
0101
0000
1010
0000
,  // measure 38
1000
0001
1000
0100
1000
0001
0100
0001
,  // measure 39
0010
0001
1000
0010
1000
0001
1000
0001
,  // measure 40
0010
0000
0011
0010
0001
0100
0001
0100
,  // measure 41
0020
2000
0000
0000
3030
0000
0010
1000
,  // measure 42
0100
0000
0010
0000
0001
0000
1000
0000
0001
1000
0001
0000
0100
0000
0010
0000
,  // measure 43
1000
0000
0010
0000
0100
0000
0010
1000
0010
0000
1000
0010
1000
0000
0010
0000
,  // measure 44
0100
0001
0100
0001
0000
1001
0000
0001
,  // measure 45
1000
0100
1000
0000
0100
0000
0010
0000
0001
0010
0001
0000
1000
0000
0010
0000
,  // measure 46
1000
0100
1000
0000
0100
0000
0020
0000
0000
0000
0000
0000
0031
0000
0100
0000
,  // measure 47
0010
1000
0010
0000
0100
0000
0001
0000
1000
0000
0010
0000
1000
0100
1000
0000
,  // measure 48
0001
0010
0001
0000
1000
0000
0001
0000
0000
0000
1001
0000
0000
0000
0001
1000
,  // measure 49
0001
0000
0000
0000
0100
0000
0000
0000
0010
1000
0010
1000
0010
1000
0010
1000
,  // measure 50
0001
0000
1000
0000
0100
0000
0010
0000
0100
0000
0010
0001
0010
0001
0010
0000
,  // measure 51
0001
0000
0010
0000
0001
0000
0010
0000
0100
0000
1000
0100
1000
0100
1000
0000
,  // measure 52
0100
0000
1000
0010
0000
1001
0000
1000
,  // measure 53
0001
0000
1000
0000
0010
0000
0100
0000
0001
0000
1000
0000
0100
1000
0100
0000
,  // measure 54
1000
0000
0001
0000
0100
0010
0100
0000
0010
0000
1000
0000
0100
0010
0100
0000
,  // measure 55
1000
0000
0100
0010
0100
0000
0010
0001
0010
0000
0001
1000
0001
0000
0100
0000
,  // measure 56
0010
0000
1000
0000
0100
0000
0010
0000
0001
0000
0010
0000
0100
0000
1000
0001
,  // measure 57
1000
0000
1000
0000
0010
0000
0010
0000
0100
0001
0100
0001
1000
0010
1000
0010
,  // measure 58
0100
0000
1001
0000
1000
0100
0001
0100
,  // measure 59
0010
0000
0011
0000
1000
0010
0001
0010
,  // measure 60
0100
0000
1100
0000
1000
0100
1000
0001
,  // measure 61
0100
0000
0110
0000
0100
0010
0100
0010
,  // measure 62
1000
0000
0101
0000
0100
0010
1000
0010
,  // measure 63
0100
0000
1010
0000
1000
0010
0100
0001
,  // measure 64
1000
0000
1001
0000
0001
1000
0010
0100
,  // measure 65
0010
0000
1001
0000
0001
1000
0010
0100
,  // measure 66
0110
0000
0000
0000
;
