#TITLE:RED ZONE;
#SUBTITLE:;
#ARTIST:Tatsh&NAOKI;
#TITLETRANSLIT:;
#SUBTITLETRANSLIT:;
#ARTISTTRANSLIT:;
#GENRE:SPEED RAVE;
#CREDIT:;
#MENUCOLOR:;
#METERTYPE:DDR;
#BANNER:RED ZONE.png;
#BACKGROUND:RED ZONE-bg.png;
#LYRICSPATH:RZ-lyrics.lrc;
#CDTITLE:!tsm-cdtitle.png;
#MUSIC:RED ZONE.mp3;
#OFFSET:-0.054;
#SAMPLESTART:24.750;
#SAMPLELENGTH:10.000;
#SELECTABLE:YES;
#LISTSORT:;
#DISPLAYBPM:165.000;
#BPMS:0.000=165.000;
#STOPS:;
#BGCHANGES:;
#ATTACKS:;

//---------------dance-single - TimeSpaceMage----------------
#NOTES:
     dance-single:
     TimeSpaceMage:
     Challenge:
     11:
     0.955,1.000,0.266,0.620,1.000: // measure 1
0000
0000
0000
0000
,  // measure 2
0000
0000
0000
0000
,  // measure 3
0000
0000
0000
0000
,  // measure 4
0000
0000
0000
0000
,  // measure 5
0000
0000
0000
0000
,  // measure 6
0010
1000
0010
1000
0000
0000
0001
0000
0010
0001
0010
0001
0000
0000
0100
0000
,  // measure 7
0010
1000
0100
1000
0100
0010
0001
0010
0001
0000
0100
0000
0010
0000
0000
0000
,  // measure 8
0100
0001
0100
0010
0000
0000
0010
0000
1000
0100
1000
0001
0000
0000
0100
0000
,  // measure 9
0010
0100
0000
0010
0100
0000
0100
0010
0000
0010
0000
0100
1000
0000
0001
0000
,  // measure 10
0010
0100
0010
0001
0010
0100
0010
1000
,  // measure 11
0010
0100
0010
0001
0010
0000
0110
0000
,  // measure 12
0100
0010
0000
0100
0010
0000
0010
0100
0000
0010
0000
1000
0001
0000
1000
0000
,  // measure 13
0100
0010
0001
0000
0100
0010
0000
0010
0000
0100
0010
0000
1000
0000
0001
0000
,  // measure 14
0010
0100
0010
1000
0010
0100
0010
0001
,  // measure 15
0010
0100
0010
1000
0010
0000
0110
0000
,  // measure 16
0100
0010
0000
0100
0010
0000
0010
0100
0000
0010
0000
0100
0010
0000
0001
0000
,  // measure 17
0100
0000
0100
0022
0000
0000
0033
0000
,  // measure 18
1000
0000
0100
0000
1000
0000
0100
0000
0010
0001
0000
0001
0000
0010
0001
0010
,  // measure 19
0100
0000
1000
0000
0100
0000
0010
0000
0001
0001
0000
0101
0000
0100
0001
0100
,  // measure 20
0001
0000
0100
0000
0001
0000
0100
0000
0010
0010
0000
1010
0000
1000
0010
1000
,  // measure 21
0001
0100
0010
0000
1000
0000
0100
0000
1000
0200
0020
0000
0330
0000
0000
0000
,  // measure 22
1000
0000
0100
0000
1000
0000
0100
0000
0010
0001
0000
0001
0000
0010
0001
0010
,  // measure 23
0100
0000
1000
0000
0100
0000
0010
0000
0001
0001
0000
0101
0000
0100
0001
0100
,  // measure 24
0001
0000
0100
0000
0001
0000
0100
0000
0010
0010
0000
1010
0000
1000
0010
1000
,  // measure 25
0001
0100
0010
0000
1000
0000
0100
0000
1000
0200
0020
0000
0330
0000
0000
0000
,  // measure 26
1010
0000
0001
0000
0101
0000
0000
0001
0000
1100
0000
0000
0001
0000
1000
0000
,  // measure 27
0100
0000
0010
0000
0100
1000
0000
1000
0001
0000
0001
0100
0000
0000
0010
0100
,  // measure 28
0001
0000
1000
0000
0001
0000
0000
0100
0000
0010
0000
0000
0100
0000
0010
0000
,  // measure 29
1000
0100
0010
0001
0100
0010
0100
0010
0100
0010
1000
0100
0010
0001
0010
0100
,  // measure 30
1000
0000
0100
0000
0101
0000
0000
1000
0000
1010
0000
0000
1000
0000
0001
0000
,  // measure 31
0100
0010
0000
0010
0000
1000
0100
0000
1000
0100
0000
0010
0001
0000
0000
0000
,  // measure 32
0010
0000
0001
0000
0100
0010
0000
0010
1000
0000
0001
1000
0001
0000
1000
0000
,  // measure 33
0100
0000
0010
0000
0001
0000
0001
0010
0001
0000
1000
0010
1000
0010
0100
0010
,  // measure 34
2000
0000
0002
3000
0200
0003
0302
0200
,  // measure 35
0003
0000
0320
0000
0200
0030
0002
0300
0020
0003
0200
0030
2000
0300
0020
3000
,  // measure 36
0002
0030
0000
0000
2000
0000
0003
0000
0200
0000
3000
0000
0002
0000
2300
0000
,  // measure 37
0003
0000
3020
0000
0200
0030
0002
0300
0020
0003
0200
0030
2000
0300
0000
3000
,  // measure 38
0020
0000
2000
0030
0002
3000
0023
2000
,  // measure 39
0030
0000
3002
0000
0200
0003
2000
0300
0020
3000
0002
0030
0020
0003
2000
0030
,  // measure 40
0200
3000
0000
0000
0020
0000
0300
0000
0002
0000
0030
0000
0023
0000
0002
0030
,  // measure 41
0000
0003
0020
0000
0200
0030
2000
0300
0020
3000
0200
0030
0002
0300
0000
0003
,  // measure 42
0010
0000
0100
0000
0010
0000
0000
0001
0000
1000
0000
0000
0001
0000
1000
0000
,  // measure 43
0100
0000
0010
0000
0100
1000
0000
1000
0001
0000
0001
0100
0000
0000
0001
0010
,  // measure 44
0001
0000
1000
0000
0001
0000
0000
0100
0000
0010
0000
0000
0100
0000
0010
0000
,  // measure 45
1000
0100
0010
0001
0100
0010
0100
0010
0100
0010
1000
0100
0010
0001
0010
0100
,  // measure 46
1000
0000
0100
0000
0101
0000
0000
1000
0000
1010
0000
0000
1000
0000
0001
0000
,  // measure 47
0100
0010
0000
0010
0000
1000
0100
0000
1000
0100
0000
0010
0001
0000
0000
0000
,  // measure 48
0010
0000
0001
0000
0100
0010
0000
0010
1000
0000
0001
1000
0001
0000
1000
0000
,  // measure 49
0100
0000
0010
0000
0001
0000
0001
0010
0001
0000
1000
0010
1000
0010
0100
0020
,  // measure 50
2000
0000
0000
3030
,  // measure 51
0010
0100
0001
0100
0010
0100
0001
0100
0010
0100
0001
0100
0010
0100
0001
0100
,  // measure 52
0010
1000
0001
0010
0001
1000
0001
0010
0001
1000
0001
0100
0001
1000
0001
0010
,  // measure 53
0001
0010
0100
1000
0100
1000
0100
0010
0001
0010
0100
1000
0100
1000
0100
0010
,  // measure 54
0001
1000
0010
1000
0001
0010
0001
1000
0010
1000
0001
0010
0001
1000
0010
1000
,  // measure 55
0100
0010
0100
0010
0001
0010
0001
0010
0100
0010
0100
0010
1000
0010
1000
0010
,  // measure 56
0100
1000
0100
1000
0100
0001
0100
0001
1000
0010
1000
0010
0001
0010
0001
0010
,  // measure 57
0100
1000
0010
1000
0010
0100
0010
1000
0010
0100
0001
0100
0001
1000
0001
0100
,  // measure 58
0001
0010
0100
1000
0100
0010
0001
0010
0100
1000
0100
0010
0001
0100
0010
1000
,  // measure 59
0100
0000
0000
1100
0000
0000
0101
0000
0000
0010
0100
0000
1010
0000
1100
0000
,  // measure 60
0110
0000
0000
0011
0000
0000
0110
0000
0000
0010
0100
0000
0011
0000
1001
0000
,  // measure 61
0220
0000
0000
0000
,  // measure 62
0330
0000
0000
0000
;
