#TITLE:PARANOiA;
#SUBTITLE:;
#ARTIST:180;
#TITLETRANSLIT:;
#SUBTITLETRANSLIT:;
#ARTISTTRANSLIT:;
#GENRE:JUNGLE;
#CREDIT:;
#MENUCOLOR:;
#METERTYPE:DDR;
#BANNER:PARANOiA.png;
#BACKGROUND:PARANOiA-bg.png;
#LYRICSPATH:PARANOiA.lrc;
#CDTITLE:./CDTITLES/DANCE DANCE REVOLUTION.PNG;
#MUSIC:PARANOiA.mp3;
#OFFSET:-0.039;
#SAMPLESTART:0.020;
#SAMPLELENGTH:15.000;
#SELECTABLE:YES;
#LISTSORT:;
#DISPLAYBPM:180.000;
#BPMS:0.000=181.210,8.000=180.000,16.000=177.340,20.000=180.900,60.000=179.100,64.000=177.340,68.000=180.000,72.000=181.820,76.000=180.000,88.000=181.820,94.000=176.470,96.000=169.810,97.000=180.000,98.000=183.670,99.000=180.000,100.000=176.470,101.000=181.560,108.000=180.300,120.000=181.820,124.000=178.220,126.000=174.760,128.000=178.220,134.000=183.670,136.000=180.000,140.000=180.900,144.000=177.340,148.000=180.000,152.000=180.900,160.000=179.280,165.000=180.530,192.000=182.190,197.000=174.190,200.000=179.100,204.000=180.990,215.000=176.470,216.000=181.110,229.000=174.190,232.000=180.900,240.000=179.100,244.000=180.900,248.000=177.340,252.000=180.900,256.000=179.100,260.000=180.900,264.000=180.600,288.000=176.470,292.000=183.670;
#STOPS:;
#BGCHANGES:;
#ATTACKS:;

//---------------dance-single - 5th Mix DB----------------
#NOTES:
     dance-single:
     5th Mix DB:
     Challenge:
     9:
     0.760,0.703,0.252,0.000,0.247: // measure 1
0000
0000
0000
0000
,  // measure 2
0000
0000
0000
0000
,  // measure 3
0000
0000
0000
0000
,  // measure 4
0000
0000
0000
0000
,  // measure 5
0000
0000
0000
0000
,  // measure 6
0000
0000
0000
0000
,  // measure 7
0001
0100
0001
1000
0100
1000
0001
0100
,  // measure 8
0001
0000
1000
0000
0100
0000
1000
0000
0001
0100
0001
0100
0001
0000
0000
0000
,  // measure 9
1100
0000
0101
0000
0010
0100
0010
0100
,  // measure 10
0001
0100
0001
1000
0010
1000
0100
0010
,  // measure 11
0100
1000
0100
1000
0001
0010
0001
0100
,  // measure 12
0001
1000
0010
0100
0001
0000
0000
1001
,  // measure 13
0000
0010
0100
0000
0010
0100
0010
1000
,  // measure 14
0010
0001
0010
0001
0010
1000
0010
1000
,  // measure 15
0001
0100
0010
1000
0100
0010
0001
1000
,  // measure 16
0100
0000
1000
0000
0001
0000
0001
0000
1000
0100
1000
0100
1000
0000
0000
0000
,  // measure 17
0000
0010
0100
0000
0100
1000
0010
0100
,  // measure 18
0001
1000
0010
1000
0001
1000
0100
0010
,  // measure 19
0001
0010
0100
1000
0001
0010
0100
1000
,  // measure 20
0010
0100
0001
0100
0001
0100
0001
1000
,  // measure 21
0100
1000
0001
1000
0010
1000
0001
0010
,  // measure 22
0001
1000
0010
1000
0100
1000
0010
1000
,  // measure 23
0100
1000
0001
0010
0001
0100
0010
0100
,  // measure 24
0010
0000
1000
0000
0001
0000
1000
0000
0001
0100
0001
0100
0001
0000
0000
0000
,  // measure 25
0010
1000
0000
0000
0001
0100
0000
0000
0010
0100
0000
0000
0100
1000
0000
0000
,  // measure 26
0001
0100
0000
0000
0010
0100
0000
0000
0001
1000
0000
0000
0000
0000
0110
0000
,  // measure 27
0000
1001
0000
0110
1001
0000
0110
1001
,  // measure 28
0000
0000
0000
0011
0000
0000
0000
1100
0000
0000
0000
0101
0000
0000
0000
0000
,  // measure 29
0010
0100
0000
0000
0001
0100
0000
0000
0010
1000
0000
0000
0100
1000
0000
0000
,  // measure 30
0001
0010
0000
0000
0010
0100
0000
0000
0100
1000
0000
0000
0001
1000
0000
0000
,  // measure 31
0010
1000
0000
0000
0001
0100
0000
0000
0010
1000
0000
0000
0100
0010
0000
0000
,  // measure 32
1001
0000
0110
0000
1001
0000
0100
0010
,  // measure 33
0000
0100
1000
0010
1000
0100
0001
0100
,  // measure 34
1000
0001
0001
0100
0001
1000
1000
0100
,  // measure 35
0000
0100
0001
0010
0001
0100
1000
0100
,  // measure 36
0001
1000
1000
0100
1000
0001
0001
0100
,  // measure 37
0000
0100
1000
0010
0100
0001
0010
0100
,  // measure 38
1000
0001
0001
0100
0001
1000
1000
0100
,  // measure 39
0000
0100
0001
0010
0100
1000
0010
0100
,  // measure 40
0001
1000
1000
0100
1000
0001
0001
0100
,  // measure 41
1001
0000
0000
0000
0000
0000
0000
0000
0010
0001
0000
0000
1000
0100
0000
0000
,  // measure 42
0000
0000
0000
0000
0001
0100
0000
0000
1000
0100
0000
0000
0010
0100
0000
0000
,  // measure 43
1001
0000
1001
0000
0100
0001
0010
0001
,  // measure 44
1000
0010
0100
0001
0010
0001
0100
0001
,  // measure 45
0100
0010
1000
0010
1000
0100
1000
0100
,  // measure 46
0010
0001
1000
0010
0001
0010
1000
1000
,  // measure 47
1000
0001
0100
0010
0010
1000
0100
1000
,  // measure 48
0001
0010
0010
0001
0100
0001
0010
0001
,  // measure 49
0010
0100
1000
1000
0001
0010
0001
0010
,  // measure 50
0100
0000
1000
0000
0001
0000
0001
0000
1000
0100
1000
0100
1000
0000
0000
0000
,  // measure 51
0001
0001
0001
0000
0010
1000
0010
1000
,  // measure 52
0001
0100
0001
0100
0010
0100
0010
0000
,  // measure 53
0010
1000
0100
0000
0010
0001
0010
0001
,  // measure 54
1000
0100
1000
0100
0010
0100
0010
0000
,  // measure 55
1000
1000
1000
0000
0001
1000
0001
1000
,  // measure 56
0001
1000
0001
1000
1000
0001
0001
0000
,  // measure 57
0010
0001
0100
0000
0001
0001
1000
1000
,  // measure 58
0001
0000
1000
0000
0001
0000
1000
0000
0001
0100
0001
0100
0001
0000
0000
0000
,  // measure 59
1001
0000
0010
0001
0100
1000
0100
0001
,  // measure 60
0010
0100
1000
0100
0001
0100
0010
0000
,  // measure 61
1001
0000
0010
1000
0100
0001
0100
1000
,  // measure 62
0010
0100
0001
0100
1000
0100
0010
0000
,  // measure 63
1001
0000
0010
1000
0100
0010
0001
0100
,  // measure 64
0010
1000
0100
0010
0001
0100
0010
0000
,  // measure 65
1001
0000
0100
0001
0010
0100
1000
0010
,  // measure 66
0100
0001
0010
0100
1000
0010
0100
0000
,  // measure 67
0010
0000
1000
0000
0001
0000
0100
0000
0001
0010
0001
0010
0001
0000
0000
0000
,  // measure 68
0010
0000
0001
0000
1000
0000
0100
0000
1000
0010
1000
0010
1000
0000
0000
0000
,  // measure 69
0100
0000
1000
0000
0001
0000
0010
0000
0001
0100
0001
0100
0001
0000
0000
0000
,  // measure 70
0100
0000
0001
0000
1000
0000
0010
0000
1000
0100
1000
0100
1000
0000
0000
0000
,  // measure 71
1000
0100
0010
0001
0010
0100
1000
0100
,  // measure 72
0010
0001
0010
0100
1000
0100
0010
0001
,  // measure 73
1000
0100
1000
0100
1000
0000
0000
0000
0001
0100
0001
0100
0001
0000
0000
0000
,  // measure 74
1001
0110
1001
0000
;
