#TITLE:On The Break;
#SUBTITLE:;
#ARTIST:Darwin;
#TITLETRANSLIT:;
#SUBTITLETRANSLIT:;
#ARTISTTRANSLIT:;
#GENRE:;
#CREDIT:;
#MENUCOLOR:;
#METERTYPE:DDR;
#BANNER:On The Break.png;
#BACKGROUND:On The Break-bg.png;
#LYRICSPATH:;
#CDTITLE:./CDTITLES/DanceDanceRevolution X.png;
#MUSIC:On The Break.mp3;
#OFFSET:-0.059;
#SAMPLESTART:69.206;
#SAMPLELENGTH:13.420;
#SELECTABLE:YES;
#LISTSORT:;
#BPMS:0.000=170.000,156.000=85.000,172.000=170.000;
#STOPS:92.000=1.412
;
#BGCHANGES:;
#ATTACKS:;

//---------------dance-single - ----------------
#NOTES:
     dance-single:
     Dr.D:
     Edit:
     11:
     0.841,1.000,0.354,0.273,0.945: // measure 1
0000
0000
0000
0000
,  // measure 2
0000
0000
0000
0000
,  // measure 3
0000
0000
0000
0000
,  // measure 4
0000
0000
0000
0000
,  // measure 5
0010
1000
0100
0010
0001
1000
0001
0000
0100
0000
0000
0000
0100
0000
0000
0000
,  // measure 6
0001
1000
0100
0010
0001
0100
0010
0000
0100
0000
0000
0000
0100
0000
0000
0000
,  // measure 7
0001
0100
0001
1000
0010
0000
0000
0000
1000
0100
1000
0001
0010
0000
0000
0000
,  // measure 8
2002
0000
0000
3003
,  // measure 9
2010
0000
0000
0010
0000
3000
0200
0000
0010
0000
0000
0010
0300
0000
0002
0000
,  // measure 10
0100
0000
0000
0100
0003
0000
0010
0000
1000
0000
0100
0000
0010
0000
0000
0000
,  // measure 11
0102
0000
0000
0100
0003
0000
0020
0000
1000
0000
0000
1000
0030
0000
0200
0000
,  // measure 12
0010
0000
0000
0010
0300
0000
0001
0000
0100
0000
0010
0000
0100
0000
0000
0000
,  // measure 13
2001
0000
0000
0001
0000
3000
0200
0000
0010
0000
0000
0010
0300
0000
0002
0000
,  // measure 14
0100
0000
0000
0100
0003
0000
0010
0000
1000
0000
0001
0000
0100
0000
0000
0000
,  // measure 15
0120
0000
0000
0100
0000
0000
0130
0000
0020
0000
0000
1000
0000
0030
2000
0000
,  // measure 16
0100
0000
0000
0100
3000
0000
0010
0000
0001
0000
1000
0000
0010
0000
0000
0000
,  // measure 17
0010
0000
1000
0010
0000
0100
0001
0100
0001
0000
0010
0001
0000
0010
0100
1000
,  // measure 18
0100
0000
0010
0001
0000
0100
0010
0100
0010
0000
1000
0000
0001
0000
0000
0000
,  // measure 19
0100
0000
0001
0100
0000
0010
1000
0010
1000
0000
0100
1000
0000
0100
0010
0001
,  // measure 20
0010
0000
0100
1000
0000
0010
0100
0010
0100
0000
0001
0000
1000
0000
0000
0000
,  // measure 21
0100
0000
0010
0001
0000
0100
0001
0100
0001
0000
1000
0010
0000
0100
0001
0100
,  // measure 22
0001
0000
0010
0001
0000
0100
0010
0100
0010
0000
1000
0000
0001
0000
0000
0000
,  // measure 23
0100
0000
0010
1000
0000
0001
0100
0001
0100
0000
0010
1000
0000
0100
1000
0001
,  // measure 24
1000
0001
0010
0100
1000
0010
0100
0001
1000
0100
0010
0001
1000
0010
0100
0010
,  // measure 25
0100
0001
0010
0100
1000
0010
0100
0001
1000
0010
0100
0001
0010
0000
0000
0000
,  // measure 26
0100
1000
0010
0100
0001
1000
0100
0010
0001
1000
0100
0010
0001
1000
0010
0100
,  // measure 27
0010
0100
0001
0100
0001
1000
0100
0010
0001
0100
0010
1000
0100
0000
0000
0000
,  // measure 28
0010
0001
1000
0010
1000
0100
0010
0100
1000
0001
0100
0010
1000
0100
1000
0100
,  // measure 29
0010
0001
0100
0010
1000
0100
0010
0001
0100
0010
1000
0100
0010
0000
0000
0000
,  // measure 30
0010
0100
1000
0010
1000
0001
0100
0001
0100
0010
1000
0001
0010
0100
1000
0002
,  // measure 31
2000
0000
0000
3003
,  // measure 32
1100
0000
0000
0000
0101
0000
0000
0000
0010
0000
1000
0001
0000
0010
0100
0010
,  // measure 33
0100
1000
0010
0100
0001
1000
0001
0000
,  // measure 34
1001
0000
0000
0000
1100
0000
0000
0000
0100
0000
1000
0001
0000
0100
0010
0100
,  // measure 35
0010
1000
0001
0010
0100
1000
0001
0000
,  // measure 36
0011
0000
0000
0000
0101
0000
0000
0000
0100
0000
0010
0100
0000
0100
0010
0000
,  // measure 37
1001
0000
0000
0000
0101
0000
0000
0000
0001
0000
1000
0001
0000
0001
1000
0000
,  // measure 38
0110
1001
0011
1100
,  // measure 39
2002
0000
0000
3003
,  // measure 40
1000
0000
0100
0000
0001
0000
0100
0000
1000
0100
1000
0100
0001
0100
0001
0100
,  // measure 41
1000
0010
1000
0010
0001
0010
0001
0010
1000
0100
0010
0001
0100
0010
1000
0100
,  // measure 42
1001
0000
0010
1000
0100
0010
0001
1000
1001
0000
1000
0100
0010
0001
0100
0010
,  // measure 43
1001
0000
0010
0100
0110
0000
1000
0001
1001
0000
0100
0010
1000
0100
0010
0001
,  // measure 44
1002
0000
0000
0003
,  // measure 45
1010
0000
0000
0000
0101
0000
0000
0010
0100
0000
1000
0000
0010
0000
0000
0000
,  // measure 46
1000
0000
0100
0000
0010
0000
0001
0100
0001
0000
1000
0000
0100
0000
0010
0000
,  // measure 47
0011
0000
0000
0000
1100
0000
0000
0010
0100
0000
0001
0000
1000
0000
0000
0000
,  // measure 48
0100
0000
0010
0000
0001
0000
1000
0100
1000
0000
0001
0000
0100
0000
0010
0000
,  // measure 49
1010
0000
0000
0000
0101
0000
0000
1000
0001
0000
0010
0000
0100
0000
0000
0000
,  // measure 50
1000
0000
0010
0000
0100
0000
0001
1000
0001
0000
0100
0000
0010
0000
1000
0000
,  // measure 51
1100
0000
0000
0000
1001
0000
0000
0010
0100
0000
0001
0000
0010
0000
0000
0000
,  // measure 52
0100
0010
0100
0000
1001
0100
1001
0000
,  // measure 53
1000
0100
1000
0001
0100
0001
1000
0100
0010
0000
0002
0000
2000
0000
3003
0000
,  // measure 54
0001
0010
0001
1000
0010
1000
0001
0010
0100
0000
2000
0000
0002
0000
3003
0000
,  // measure 55
0010
0100
0010
0100
1000
0001
1000
0001
0100
0010
0100
0010
1000
0010
1000
0010
,  // measure 56
1000
0100
1000
0100
1000
0001
1000
0001
0100
0000
0020
0000
0200
0000
0330
0000
,  // measure 57
0001
0100
0001
1000
0010
1000
0100
0010
0001
0100
0010
0100
0001
0010
0100
0010
,  // measure 58
0001
0100
0010
1000
0100
1000
0100
0010
0001
0100
0010
1000
0100
0010
0001
0100
,  // measure 59
0010
1000
0100
1000
0100
0010
0001
0010
0001
0100
0010
1000
0001
0000
0000
0000
,  // measure 60
1000
0001
1000
0010
0100
0010
1000
0000
,  // measure 61
2002
0000
0000
0000
,  // measure 62
0000
0000
0000
3003
;
