#TITLE:ONLY YOU;
#SUBTITLE:;
#ARTIST:CAPTAIN JACK;
#TITLETRANSLIT:;
#SUBTITLETRANSLIT:;
#ARTISTTRANSLIT:;
#GENRE:;
#CREDIT:;
#MENUCOLOR:;
#METERTYPE:DDR;
#BANNER:ONLY YOU.png;
#BACKGROUND:ONLY YOU-bg.png;
#LYRICSPATH:;
#CDTITLE:!tsm-cdtitle.png;
#MUSIC:ONLY YOU.mp3;
#OFFSET:-1.038;
#SAMPLESTART:21.000;
#SAMPLELENGTH:12.000;
#SELECTABLE:YES;
#LISTSORT:;
#DISPLAYBPM:186.000;
#BPMS:0.000=186.000;
#STOPS:;
#BGCHANGES:;
#ATTACKS:;

//---------------dance-single - TimeSpaceMage----------------
#NOTES:
     dance-single:
     TimeSpaceMage:
     Hard:
     7:
     0.441,0.572,0.157,0.000,0.381: // measure 1
0000
0000
0000
0000
,  // measure 2
0000
0000
0000
0000
,  // measure 3
0000
0000
0000
0000
,  // measure 4
0000
0000
0000
0000
,  // measure 5
0000
0000
0000
0000
,  // measure 6
0000
0000
0000
0000
,  // measure 7
0000
0000
0000
0000
,  // measure 8
0000
0000
0000
0000
,  // measure 9
1000
0000
0000
0100
0000
0000
1000
0000
0000
0000
0000
0100
,  // measure 10
1000
0000
0000
0100
0000
0000
1000
0000
0000
0000
0000
0001
,  // measure 11
0100
0000
0000
0001
0000
0000
0100
0000
0000
0000
0000
0001
,  // measure 12
0100
0000
0000
0001
0000
0000
0100
0000
0000
0000
0000
0010
,  // measure 13
1000
0000
0000
0010
0000
0000
1000
0000
0000
0000
0000
0010
,  // measure 14
1000
0000
0000
0010
0000
0000
1000
0000
0000
0000
0000
0001
,  // measure 15
0100
0000
0001
0100
0000
0000
0000
0000
0001
0010
0000
0001
,  // measure 16
0010
0000
0000
0000
,  // measure 17
0100
0000
0000
1000
0000
0000
0100
0000
0000
1000
0000
0001
,  // measure 18
0010
0000
0000
0001
0000
0000
0010
0000
0000
0000
0000
0001
,  // measure 19
0100
0000
0000
0001
0000
0000
0100
0000
0000
0010
0000
1000
,  // measure 20
0010
0000
0000
1000
0000
0000
0010
0000
0000
0000
0000
1000
,  // measure 21
0100
0000
0000
1000
0000
0000
0100
0000
0000
1000
0000
0001
,  // measure 22
0010
0000
0000
0001
0000
0000
0010
0000
0000
0000
0000
0100
,  // measure 23
0010
0000
0100
0010
0000
0000
0000
0000
0010
0100
0000
0010
,  // measure 24
0100
0000
0000
0000
,  // measure 25
0001
0000
0000
0100
0000
0000
0001
0000
0000
1000
0000
0010
,  // measure 26
1000
0000
0000
0010
0000
0000
1000
0000
0000
0000
0000
0001
,  // measure 27
0010
0000
0000
0001
0000
0000
0010
0000
0000
0100
0000
1000
,  // measure 28
0100
0000
0000
1000
0000
0000
0100
0000
0000
0000
0000
1000
,  // measure 29
0001
0000
0000
0100
0000
0000
0001
0000
0000
1000
0000
0010
,  // measure 30
1000
0000
0000
0010
0000
0000
1000
0000
0000
0000
0000
0010
,  // measure 31
0100
0000
0010
0100
0000
0000
0000
0000
0100
0010
0000
0100
,  // measure 32
0010
0000
0000
0000
,  // measure 33
0010
0000
1000
0010
0000
0010
0100
0000
0100
0001
0000
0001
,  // measure 34
0010
0110
1000
1100
,  // measure 35
0100
0000
0100
0010
0000
0010
0001
0000
0001
0100
0000
0100
,  // measure 36
0010
0110
0001
0101
,  // measure 37
0010
0000
1000
0010
0000
0010
0100
0000
0100
0001
0000
0001
,  // measure 38
0010
0110
1000
1100
,  // measure 39
0100
0000
0100
0010
0000
0010
0001
0000
0001
0100
0000
0100
,  // measure 40
0010
0000
0110
0000
,  // measure 41
0001
0001
1001
0000
,  // measure 42
0010
0010
0110
0000
,  // measure 43
1000
1000
1001
0000
,  // measure 44
0100
0100
0110
0000
,  // measure 45
1000
0000
0000
1000
0000
0000
1001
0000
0000
0000
0000
0001
,  // measure 46
0010
0010
0110
0000
,  // measure 47
0010
0000
0000
0001
0000
0000
0001
0000
0000
0010
0000
0001
,  // measure 48
0010
0010
0001
0000
,  // measure 49
1000
0000
0000
1000
0000
0000
0100
0000
0000
1000
0000
0100
,  // measure 50
1000
0000
0000
0100
0000
0000
1000
0000
0000
0000
0000
0001
,  // measure 51
0100
0000
0000
0100
0000
0000
0001
0000
0000
0100
0000
0001
,  // measure 52
0100
0000
0000
0001
0000
0000
0100
0000
0000
0000
0000
0010
,  // measure 53
1000
0000
0000
1000
0000
0000
0010
0000
0000
1000
0000
0010
,  // measure 54
1000
0000
0000
0010
0000
0000
1000
0000
0000
0000
0000
0001
,  // measure 55
0100
0000
0001
0100
0000
0000
0000
0000
0001
0010
0000
0001
,  // measure 56
0010
0000
0000
0000
,  // measure 57
1000
0000
0000
1000
0000
0000
0100
0000
0000
1000
0000
0100
,  // measure 58
1000
0000
0000
0100
0000
0000
1000
0000
0000
1000
0000
0001
,  // measure 59
0100
0000
0000
0100
0000
0000
0001
0000
0000
0100
0000
0001
,  // measure 60
0100
0000
0000
0001
0000
0000
0100
0000
0000
0100
0000
0010
,  // measure 61
1000
0000
0000
1000
0000
0000
0010
0000
0000
1000
0000
0010
,  // measure 62
1000
0000
0000
0010
0000
0000
1000
0000
0000
0000
0000
0001
,  // measure 63
0100
0000
0001
0100
0000
0000
0000
0000
0001
0010
0000
0001
,  // measure 64
0010
0000
0000
0000
;
