#TITLE:MR. WONDERFUL;
#SUBTITLE:;
#ARTIST:SMILE.dk;
#TITLETRANSLIT:;
#SUBTITLETRANSLIT:;
#ARTISTTRANSLIT:;
#GENRE:;
#CREDIT:;
#MENUCOLOR:;
#METERTYPE:DDR;
#BANNER:MR. WONDERFUL.png;
#BACKGROUND:MR. WONDERFUL-bg.png;
#LYRICSPATH:MR. WONDERFUL.lrc;
#CDTITLE:./CDTITLES/DANCE MANIA 12.PNG;
#MUSIC:MR. WONDERFUL.mp3;
#OFFSET:-0.146;
#SAMPLESTART:57.510;
#SAMPLELENGTH:12.000;
#SELECTABLE:YES;
#LISTSORT:;
#DISPLAYBPM:138.000;
#BPMS:0.000=137.990;
#STOPS:;
#BGCHANGES:;
#ATTACKS:;

//---------------dance-single - 5th Mix DB #301----------------
#NOTES:
dance-single:
5th
Mix
DB
#301: Challenge: 9: 0.703,0.705,0.514,0.000,0.536: // measure 1 0000 0000 0000 0000 , // measure 2 0000 0000 0000 0000 , // measure 3 0000 0000 0000 0000 , // measure 4 0000 0000 0000 0000 , // measure 5 0000 0000 0100 1000 0000 0000 0001 0100 0000 0000 0010 1000 0000 0000 0100 0010 , // measure 6 0000 0000 0001 0100 0000 0000 1000 0100 0000 0000 0001 0010 0000 0000 0100 1000 , // measure 7 0000 0000 0010 1000 0000 0000 0001 0100 0000 0000 0001 0010 0000 0000 0100 1000 , // measure 8 0000 0000 0000 0000 0000 0000 0001 0000 1000 0010 1000 0000 0001 0000 1000 0000 , // measure 9 0100 0000 0000 0100 1000 0000 0001 0000 0010 0000 0000 0010 0001 0000 1000 0000 , // measure 10 0100 1000 0100 0000 0010 0000 0001 0100 0001 0100 0001 0000 1000 0000 0010 0100 , // measure 11 0010 0100 0010 0000 0100 0000 0001 0010 0001 0010 0001 0000 0100 0000 0010 1000 , // measure 12 0010 1000 0010 0000 1000 0000 0001 0100 0001 0100 0001 0000 0010 0000 0100 1000 , // measure 13 0100 0000 0000 0101 0000 0000 0011 0000 0101 0000 0000 1100 0000 0000 1010 0000 , // measure 14 0001 0010 0001 0000 0100 0000 0010 1000 0010 1000 0010 0000 0100 0000 0001 0010 , // measure 15 0001 0010 0001 0000 1000 0000 0100 0010 0100 0010 0100 0000 0010 0000 0001 0100 , // measure 16 0001 0100 0001 0000 0100 0000 0010 1000 0010 1000 0010 0000 0100 0000 0001 0010 , // measure 17 0001 0000 0000 1010 0000 0000 1100 0000 1001 0000 0000 0000 0000 0000 0000 0000 , // measure 18 1000 0000 0001 0010 0000 0100 1000 0000 0001 0000 0001 0000 1000 0000 0100 0000 , // measure 19 0000 0000 0100 0000 1000 0000 0010 0000 0100 0000 0001 0010 0000 0100 1000 0000 , // measure 20 0001 0000 1000 0010 0000 0100 0001 0000 1000 0000 1000 0000 0001 0000 0100 0000 , // measure 21 0000 0100 0001 0010 1001 0000 0110 0000 , // measure 22 0001 0000 1000 0010 0000 0100 0001 0000 1000 0000 1000 0000 0001 0000 0100 0000 , // measure 23 0000 0000 0100 0000 0001 0000 0010 0000 0100 0000 1000 0010 0000 0100 0001 0000 , // measure 24 1000 0000 0001 0010 0000 0100 1000 0000 0001 0000 0001 0000 1000 0000 0100 0000 , // measure 25 0000 0000 0101 0101 0000 1100 1100 0000 , // measure 26 0011 0000 1000 0000 0010 0100 0001 0000 0100 0000 0100 0000 0010 0000 1001 0000 , // measure 27 0000 0000 0110 0000 0001 0000 1000 0100 1000 0000 0001 0000 0010 0000 0000 0000 , // measure 28 1010 0000 0001 0000 0010 0100 1000 0000 0100 0000 0100 0000 0010 0000 1001 0000 , // measure 29 0000 0110 1001 0110 1001 0000 0110 0000 , // measure 30 0011 0000 1000 0000 0010 0100 0001 0000 0100 0000 0100 0000 0010 0000 1001 0000 , // measure 31 0000 0000 0110 0000 0001 0000 1000 0000 0001 0010 0001 0000 0100 0000 0000 0000 , // measure 32 0110 0000 0001 0000 1000 0010 0100 0000 0001 0000 0001 0000 0010 0000 0100 0000 , // measure 33 1000 0010 1000 0000 0001 0010 0001 0000 0100 0000 0000 0000 1001 0000 0000 0000 , // measure 34 1010 0000 0100 0000 0001 0010 0100 0000 1000 0000 1000 0000 0001 0000 0101 0000 , // measure 35 0000 0000 1010 0000 0001 0000 0100 1000 0100 0000 0001 0000 0010 0000 0000 0000 , // measure 36 1001 0000 0100 0000 0010 0001 0100 0000 0010 0000 0010 0000 1000 0000 1100 0000 , // measure 37 0000 0011 1001 1100 1001 0000 0110 0000 , // measure 38 1001 0000 0100 0000 0010 1000 0100 0000 0010 0000 0010 0000 0001 0000 1010 0000 , // measure 39 0000 0000 0011 0000 1000 0000 0100 0000 0010 0001 0010 0000 0100 0000 0000 0000 , // measure 40 1010 0000 0001 0000 0010 0100 1000 0000 0001 0000 0001 0000 0100 0000 0000 0000 , // measure 41 1001 0000 0000 0000 0000 0000 0001 0000 1000 0010 1000 0000 0001 0000 0001 0000 , // measure 42 0100 0000 0010 1000 0000 0010 1000 0000 0001 0000 0001 0000 1000 0000 0100 0000 , // measure 43 0010 0000 0001 0100 0000 0001 0100 0000 0010 0000 1000 0100 0000 1000 0100 0000 , // measure 44 1000 0000 0010 0100 0000 0001 0010 0000 0100 0000 0100 0000 1000 0000 0001 0000 , // measure 45 0010 0000 0100 1000 0000 0010 0100 0000 1001 0000 0000 0000 0110 0000 0000 0000 , // measure 46 0001 0000 1000 0010 0000 0100 0001 0000 0010 0000 0010 0000 0001 0000 0100 0000 , // measure 47 0010 0000 1000 0100 0000 0010 0001 1000 0010 0000 0010 0000 1000 0000 0001 0000 , // measure 48 0100 0000 0010 1000 0000 0001 0010 0000 0001 0000 0001 0000 0100 0000 0010 0000 , // measure 49 1000 0000 0100 1000 0000 0010 1000 0001 0100 0000 0100 0000 0001 0000 1000 0000 , // measure 50 0100 0000 0010 0001 0000 0100 0001 0000 0010 0000 0100 1000 0000 0010 1000 0000 , // measure 51 0100 0000 0001 0100 0000 1000 0010 0100 0001 0000 0000 0000 0000 0000 0000 0000 ;

//---------------dance-single - 5th Mix DB #601----------------
#NOTES:
dance-single:
5th
Mix
DB
#601: Edit: 9: 0.678,0.648,0.916,0.000,0.380: 0000 0000 0000 0000 , 0000 0000 0000 0000 , 0000 0000 0000 0000 , 0010 1000 0001 0100 , 1001 0000 0001 0100 0110 0001 1000 0101 , 0000 1000 0001 0100 0010 1000 1001 0000 , 1001 0000 1000 0001 0110 0010 1010 0000 , 0001 0000 0001 1000 0010 0100 0010 1000 , 0101 0000 0000 0001 0000 0000 0001 0000 1100 0000 0000 1000 0000 0000 1000 0000 , 0000 0010 1000 0000 0001 0000 0000 0100 0000 0010 1000 0000 0001 0000 0000 1000 , 0000 0010 0100 0000 0001 0000 0000 0100 0000 0001 1000 0000 0010 0000 1000 0000 , 0001 0100 0001 0000 1000 0000 0000 0010 0000 0100 0001 0000 1000 0000 0000 0010 , 0000 1000 0001 0000 0100 0000 0000 0001 0000 1000 0100 0000 0010 0000 0000 0001 , 0000 0010 0001 0000 1000 0000 0000 0100 0000 0010 0001 0000 1000 0000 0000 0001 , 0000 0010 0100 0000 1000 0000 0000 0100 0000 1000 0001 0000 0010 0000 0001 0000 , 1000 0100 1000 0000 0001 0000 0000 0010 0000 0100 1000 0000 0001 0000 0010 0000 , 1001 0000 0000 1100 0000 0000 0101 0000 0101 0000 0000 0000 0000 0000 0000 0000 , 0010 0000 0000 1000 0000 0000 0100 0000 0101 0000 1010 0000 0101 0000 1010 0000 , 0000 0000 0100 1000 0100 0000 0010 0000 0011 0000 0000 1001 0000 0000 1100 0000 , 0010 0000 0000 0001 0000 0000 0100 0000 1100 0000 0011 0000 1100 0000 0011 0000 , 0000 0101 0011 0101 1010 0000 0000 0000 , 0100 0000 0000 1000 0000 0000 0010 0000 1100 0000 0011 0000 1100 0000 0011 0000 , 0000 0000 1000 0001 1000 0000 0010 0000 1010 0000 0000 1001 0000 0000 0101 0000 , 0100 0000 0000 0001 0000 0000 0010 0000 0101 0000 1010 0000 0101 0000 1010 0000 , 1001 0000 0001 1000 0000 0001 1000 1000 , 0011 0000 0000 0001 0010 0000 0001 0000 1000 0000 1000 0000 0100 0000 0110 0000 , 0000 0001 1000 0001 1010 1100 1100 0000 , 0101 0000 0000 0001 0100 0000 0001 0000 1000 0000 1000 0000 0010 0000 0110 0000 , 0000 0100 0001 0100 1010 0000 0101 0000 , 1001 0000 0000 0001 1000 0000 0001 0000 0100 0000 0100 0000 0001 0000 0011 0000 , 0000 0100 0001 0010 1010 1100 1100 0000 , 0110 0000 0000 0010 0100 0000 0001 0000 0100 0000 0100 0000 0001 0000 0001 0000 , 1100 0101 1100 0101 1001 0000 0000 0000 , 0010 0000 1000 0000 0001 0000 0010 0001 0000 1000 0001 0000 0100 0000 0010 0000 , 1100 0000 0000 0101 0000 0000 1100 0000 0001 0000 0001 0000 0001 0000 0000 0000 , 0010 0000 0001 0000 1000 0000 0100 1000 0000 0010 0100 0000 0001 0000 1000 0000 , 0011 0000 0000 1001 0000 0000 0101 0000 1000 0000 1000 0000 1000 0000 0000 0000 , 0100 0000 1000 0000 0010 0000 1000 0001 0000 0100 0010 0000 1000 0000 0010 0000 , 0110 0000 0000 0101 0000 0000 0011 0000 0100 0000 0100 0000 0100 0000 0000 0000 , 0100 0000 0001 0000 1000 0000 0001 0010 0000 0100 1000 0000 0001 0000 0100 0000 , 0110 0000 0000 0000 0000 0000 0001 1000 0001 1000 0001 0000 0100 0000 0001 0000 , 0101 0000 0000 0001 1000 0000 0100 0000 0010 0000 0100 0000 0010 0000 0100 0000 , 1001 0000 0000 0000 0000 0000 0010 1000 0001 0100 0010 0000 1000 0000 0001 0000 , 1100 0000 0000 1000 0001 0000 0100 0000 0010 0000 0100 0000 0010 0000 0100 0000 , 1001 0000 0000 0000 0000 0000 0010 0001 1000 0010 1000 0000 0001 0000 1000 0000 , 0101 0000 0000 0001 1000 0000 0010 0000 0100 0000 0010 0000 0100 0000 0010 0000 , 0110 0000 0000 0000 0000 0000 0001 1000 0100 1000 0010 0000 1000 0000 0001 0000 , 1100 0000 0000 0001 1000 0000 0010 0000 0100 0000 0010 0000 0100 0000 0010 0000 , 0110 0000 0000 0000 0000 0000 0010 1000 0001 0100 0010 0000 0100 0000 0010 0000 , 0110 0000 0000 0001 1000 0000 0100 0000 0110 0000 0000 1000 0001 0000 0100 0000 , 0110 0000 0000 0001 1000 0000 0100 0000 1001 0000 0000 0000 0000 0000 0000 0000 ;
