#TITLE:Hit 'n' Slap;
#SUBTITLE:;
#ARTIST:Asletics;
#TITLETRANSLIT:;
#SUBTITLETRANSLIT:;
#ARTISTTRANSLIT:;
#CREDIT:;
#BANNER:Hit 'n' Slap.png;
#BACKGROUND:Hit 'n' Slap-bg.png;
#LYRICSPATH:;
#CDTITLE:!tsm-cdtitle.png;
#MUSIC:Hit 'n' Slap.mp3;
#OFFSET:-2.836;
#SAMPLESTART:9.470;
#SAMPLELENGTH:12.000;
#SELECTABLE:YES;
#DISPLAYBPM:103.000;
#BPMS:0.000=103.000;
#STOPS:;
#BGCHANGES:;

//---------------dance-single - TimeSpaceMage----------------
#NOTES:
     dance-single:
     TimeSpaceMage:
     Challenge:
     9:
     0.667,0.633,0.062,0.000,0.970: // measure 1
0000
0000
0000
0000
,  // measure 2
0000
0000
0000
0000
,  // measure 3
0000
0000
0000
0000
0000
0000
0000
0000
0000
0000
0000
0000
0000
0000
0100
0010
,  // measure 4
0100
0000
0010
0100
0010
0000
0100
0010
0100
0000
0100
0000
0010
0010
1000
0001
,  // measure 5
1000
0000
0001
1000
0001
0000
1000
1000
0001
0000
1000
0001
0000
0100
0010
1000
,  // measure 6
0010
0000
1000
0010
1000
0000
0010
1000
1000
0000
0010
0000
1000
0000
1000
0000
,  // measure 7
0100
1000
0100
0000
1000
0000
0100
0000
1000
0000
1000
0000
0100
0000
0000
0000
0010
0001
0010
0000
0001
0000
0010
0000
0000
0000
0001
0000
0000
0000
0000
0000
,  // measure 8
0010
0000
0100
0010
0100
0000
0010
0100
0100
0000
0010
0010
0000
0100
0010
0010
,  // measure 9
0100
1000
0001
0000
0001
0000
0000
0000
1000
0000
0000
0000
1000
0000
1000
0000
0001
0000
0000
0000
1000
0000
0001
0000
1000
0000
0000
0000
0001
0000
0000
0000
,  // measure 10
0100
0000
0010
0100
0010
0000
0100
0010
0100
0000
0010
0010
0000
0100
0100
0010
,  // measure 11
0000
0000
0000
0000
1000
0000
1000
0000
0001
1000
0001
0000
1000
0000
0001
0000
0001
0000
1000
0000
0000
0000
0000
0000
1000
0000
0001
1000
0001
0000
0001
0000
,  // measure 12
0100
0000
0010
1000
0010
0000
0100
0001
0100
0000
0001
0000
1000
0010
1000
0000
,  // measure 13
1000
0010
0100
0000
0001
0000
0100
0000
0001
0000
0000
0000
0100
0000
0001
0000
0100
0000
0010
1000
0010
0000
1000
0000
0010
0000
0000
0000
1000
0000
0100
0000
,  // measure 14
1000
0000
0100
1000
0100
0000
0010
0001
0001
0000
0010
0000
0001
0010
0001
0000
,  // measure 15
1000
0000
0100
0010
0001
0000
0010
0000
0001
0000
0000
0000
0100
0000
1000
0000
0100
1000
0100
0000
1000
0000
0100
0000
0100
0000
1000
0000
1000
0000
0000
0000
,  // measure 16
0000
0100
1000
0100
0010
0100
0000
0100
1000
0100
0010
0100
0001
0100
0010
0010
,  // measure 17
0000
0001
0100
0010
0100
0000
0100
0010
0100
0001
0100
0010
0100
0000
0010
0010
,  // measure 18
0000
0000
1000
1000
0000
0100
0100
0000
0010
0010
0010
0000
0001
0001
0000
0010
,  // measure 19
0000
0000
0000
0000
0001
0000
0001
0000
0000
0000
0100
0000
0100
0000
0000
0000
0010
0000
0010
0000
0010
0000
0000
0000
1000
0010
1000
0010
1000
0000
0010
0000
,  // measure 20
0100
0000
0010
0100
0010
0000
0100
0010
0100
0000
0010
0000
0100
0010
0010
0100
,  // measure 21
0001
0000
1000
0001
1000
0000
1000
0001
0001
0000
1000
1000
0000
0001
0010
0100
,  // measure 22
0010
0000
0000
0000
0100
0000
0010
0000
0100
0000
0000
0000
0010
0000
0100
0000
0010
0000
0000
0000
0010
0000
0000
0000
0100
0000
0100
0000
0010
0001
0010
0001
,  // measure 23
0010
0000
0000
0000
0100
0000
0010
0000
0100
0000
0010
0000
0010
0000
0000
0100
1000
0100
1000
0000
0100
0000
1000
0000
0000
0000
0100
0000
0000
0000
0000
0000
,  // measure 24
1000
0000
1000
0001
0001
0000
1000
0001
0001
0000
1000
0000
0001
0001
1000
1000
,  // measure 25
0001
1000
0001
0000
1000
0000
0001
0000
0001
0000
0000
0000
1000
0000
0001
0000
1000
0000
0001
1000
0001
0000
1000
0000
0001
0000
0000
0000
0001
0000
0000
0000
,  // measure 26
0100
0000
0100
0010
0010
0000
0010
0100
0100
0000
0010
0000
0100
0010
0010
0100
,  // measure 27
0010
0100
0010
0000
0100
0000
0010
0000
0010
0000
0100
0000
0010
0000
0100
0000
0010
0100
0010
0000
0100
0000
0000
0000
0010
0000
0000
0000
0100
0000
0000
0000
,  // measure 28
0001
0000
0010
0001
0010
0000
0001
0010
0001
0000
0010
0000
0001
0000
0010
0001
,  // measure 29
0010
0001
0010
0000
0001
0000
0010
0000
0010
0000
0000
0000
0001
0000
0001
0000
0010
0000
0001
0010
0001
0000
0010
0000
0001
0000
0000
0000
0010
0000
0000
0000
,  // measure 30
0100
0000
1000
0010
1000
0000
0010
1000
0010
0000
1000
0000
0010
0000
1000
1000
,  // measure 31
0010
1000
0010
0000
1000
0000
0010
0000
0010
0000
1000
0000
0010
0000
1000
0000
0010
0000
1000
0010
1000
0000
0010
0000
1000
0000
0000
0000
0010
0000
0000
0000
,  // measure 32
1000
0000
0100
0010
0100
0000
0010
0100
0110
0000
1001
0000
0110
0000
1001
0000
,  // measure 33
0110
0000
0000
0000
;
