#TITLE:Hero;
#SUBTITLE:(Club-MIX);
#ARTIST:朝比奈 夕子;
#TITLETRANSLIT:;
#SUBTITLETRANSLIT:;
#ARTISTTRANSLIT:YUUKO ASAHINA;
#GENRE:;
#CREDIT:;
#MENUCOLOR:;
#METERTYPE:DDR;
#BANNER:Hero (Club-MIX).png;
#BACKGROUND:Hero (Club-MIX)-bg.png;
#LYRICSPATH:;
#CDTITLE:!tsm-cdtitle.png;
#MUSIC:Hero (Club-MIX).mp3;
#OFFSET:-0.256;
#SAMPLESTART:44.810;
#SAMPLELENGTH:12.000;
#SELECTABLE:YES;
#LISTSORT:;
#DISPLAYBPM:140.000;
#BPMS:0.000=139.880;
#STOPS:;
#BGCHANGES:;
#ATTACKS:;

//---------------dance-single - ----------------
#NOTES:
     dance-single:
     TimeSpaceMage:
     Hard:
     9:
     0.663,0.661,0.270,0.101,0.450: // measure 1
0000
0000
0000
0000
,  // measure 2
0000
0000
0000
0000
,  // measure 3
0100
0010
0100
0000
0010
0000
0001
0010
0000
0100
0000
0010
0100
0000
0010
0000
,  // measure 4
0001
0100
0001
0000
0100
0000
0010
0100
0000
0010
0000
0100
0010
0000
1000
0000
,  // measure 5
0100
1000
0100
0000
0010
0000
0001
0010
0000
0100
0000
1000
0010
0000
1000
0000
,  // measure 6
0010
0100
0010
0000
0100
0000
0010
1000
0000
1000
0000
0010
0100
0001
0010
0100
,  // measure 7
1000
0100
1000
0000
0001
0000
0100
0001
0000
0001
0000
0100
0001
0000
0100
0000
,  // measure 8
0010
1000
0010
0000
1000
0000
0001
0010
0000
0010
0000
0100
0010
0000
0001
0000
,  // measure 9
1000
0010
0100
0000
0001
0000
0010
0100
0000
0100
0000
0010
0100
0000
0010
0000
,  // measure 10
MMMM
MMMM
MMMM
MMMM
,  // measure 11
1000
0100
0010
0100
0001
0100
0010
0100
,  // measure 12
1000
0100
0010
0100
0001
0100
0010
0100
,  // measure 13
1000
0001
0100
0010
0100
0001
0100
0010
,  // measure 14
1000
0001
0100
0010
0100
1000
0100
0010
,  // measure 15
1000
0001
0010
0100
0010
0001
0010
0100
,  // measure 16
1000
0001
0010
0100
0010
1000
0010
0100
,  // measure 17
1000
0001
0100
0010
0100
1000
0100
0010
,  // measure 18
1000
0001
0100
0010
0100
1000
0100
0010
,  // measure 19
1000
0100
0010
0001
0010
0001
0010
0100
,  // measure 20
1000
0100
0010
0001
0010
0001
0010
0100
,  // measure 21
1000
0001
0100
0010
1000
0010
1000
0100
,  // measure 22
1000
0001
0100
0010
1000
0010
1000
0100
,  // measure 23
0010
0001
0010
0100
0010
0001
0010
0100
,  // measure 24
1000
0010
0100
0010
1000
0010
0100
0010
,  // measure 25
1000
0100
0010
0001
1000
0100
0010
0001
,  // measure 26
0011
0010
0110
0100
2100
0010
0001
3010
,  // measure 27
0110
0000
0000
0000
1001
0000
0000
1000
0001
0000
0100
0000
0000
0000
0110
0000
,  // measure 28
0000
0000
0100
0000
0100
0000
0010
2000
0000
0000
0000
0000
3000
0000
0000
0000
,  // measure 29
0000
1000
0100
0010
0100
0010
0000
0001
,  // measure 30
0011
0000
1100
0000
1010
1000
0001
0010
,  // measure 31
0110
0000
0000
0000
0010
0000
0100
0010
0000
0001
0000
0000
0000
0000
1001
0000
,  // measure 32
0000
0000
0010
0000
0010
0000
1000
0020
0000
0000
0000
0000
0030
0000
0000
0000
,  // measure 33
0000
0000
0000
0000
0100
0000
0000
0001
0010
0000
0001
0000
0010
0000
0200
0000
,  // measure 34
1000
0010
2300
0000
0001
0010
3001
0010
,  // measure 35
0110
0000
0000
0000
1001
0000
0000
1000
0001
0000
0100
0000
0000
0000
0110
0000
,  // measure 36
0000
0000
0100
0000
0100
0000
0010
2000
0000
0000
0000
0000
3000
0000
0000
0000
,  // measure 37
0000
1000
0100
0010
0100
0010
0000
0001
,  // measure 38
0011
0000
1100
0000
1010
1000
0001
0010
,  // measure 39
0110
0000
0000
0000
0010
0000
0100
0010
0000
0001
0000
0000
0000
0000
1001
0000
,  // measure 40
0000
0000
0010
0000
0010
0000
1000
0020
0000
0000
0000
0000
0030
0000
0000
0000
,  // measure 41
0000
0000
0000
0000
0100
0000
0000
0001
0010
0000
0001
0000
0010
0000
0200
0000
,  // measure 42
1000
0010
2300
0000
0001
0010
3001
0000
,  // measure 43
0010
0100
0010
0000
0100
0000
1000
0100
0000
0010
0000
0100
0010
0000
0100
0000
,  // measure 44
1000
0010
1000
0000
0010
0000
0100
0010
0000
0100
0000
0010
0100
0000
0001
0000
,  // measure 45
0010
0001
0010
0000
0100
0000
1000
0100
0000
0010
0000
0001
0100
0000
0001
0000
,  // measure 46
0100
0010
0100
0000
0010
0000
0100
0001
0000
0001
0000
0100
0010
1000
0100
0010
,  // measure 47
0001
0010
0001
0000
1000
0000
0010
1000
0000
1000
0000
0010
1000
0000
0010
0000
,  // measure 48
0100
0001
0100
0000
0001
0000
1000
0100
0000
0100
0000
0010
0100
0000
1000
0000
,  // measure 49
0001
0100
0010
0000
1000
0000
0100
0010
0000
0010
0000
0100
0010
0000
0001
0000
,  // measure 50
0010
0001
0000
0000
0011
0000
0000
0000
0000
0000
0000
0000
0100
1000
0000
0000
1100
0000
0000
0000
0000
0000
0000
0000
0001
0010
0000
0000
0011
0000
0000
0000
,  // measure 51
0000
0000
0000
0000
0010
0100
0000
0000
1100
0000
0000
0000
0000
0000
0000
0000
0010
0000
0100
0000
0000
0000
0010
0000
0000
0000
1000
0000
0000
0000
0100
0000
,  // measure 52
0110
0000
0000
0000
;
