#TITLE:Dream Machine;
#SUBTITLE:;
#ARTIST:Darwin;
#TITLETRANSLIT:;
#SUBTITLETRANSLIT:;
#ARTISTTRANSLIT:;
#GENRE:;
#CREDIT:;
#MENUCOLOR:;
#METERTYPE:DDR;
#BANNER:Dream Machine.png;
#BACKGROUND:Dream Machine-bg.png;
#LYRICSPATH:;
#CDTITLE:./CDTITLES/DanceDanceRevolution X.png;
#MUSIC:Dream Machine.mp3;
#OFFSET:-0.060;
#SAMPLESTART:29.167;
#SAMPLELENGTH:13.720;
#SELECTABLE:YES;
#LISTSORT:;
#BPMS:0.000=140.000;
#STOPS:;
#BGCHANGES:;
#ATTACKS:;

//---------------dance-single - ----------------
#NOTES:
     dance-single:
     Dr.D:
     Challenge:
     10:
     0.810,0.925,0.099,0.332,0.967: // measure 1
0000
0000
0000
0000
,  // measure 2
0010
0000
1000
0000
0100
0000
0001
0000
0100
0000
1000
0000
0010
0100
0001
0100
,  // measure 3
0001
0000
1000
0000
0010
0000
0100
0000
0001
0000
0010
0000
0100
1000
0001
0100
,  // measure 4
0001
0000
1000
0000
0010
0000
0100
0000
0001
0000
0010
0000
0100
1000
0001
0100
,  // measure 5
0001
0000
0100
0000
0010
0000
0001
0000
0010
0000
1000
0000
0100
1000
0010
0100
,  // measure 6
0010
0000
0100
0000
0001
0000
1000
0000
0100
0000
0001
0000
0100
1000
0001
0100
,  // measure 7
0010
0000
1000
0000
0001
0000
0010
0000
0100
0000
1000
0000
0010
0100
0001
0100
,  // measure 8
0001
0000
1000
0000
0100
0000
0010
0000
0001
0000
0100
0000
0010
1000
0100
1000
,  // measure 9
0001
0000
0100
0000
1000
0000
0100
0000
0001
0000
0010
0000
0100
1000
0001
0100
,  // measure 10
0001
0000
0010
0000
0100
0000
1000
0000
0010
0000
1000
0000
0010
1000
0010
1000
,  // measure 11
0001
0000
0100
0000
1000
0000
0100
0000
0001
0000
0010
0000
0100
0001
0100
1000
,  // measure 12
0001
0000
0100
0000
1000
0000
0100
0000
0001
0000
0100
0000
0010
0001
0010
1000
,  // measure 13
0100
0000
1000
0000
0010
0000
0100
0000
0001
0000
0010
0000
0100
1000
0010
0100
,  // measure 14
0010
0000
1000
0000
0010
0000
0100
0000
0001
0000
0010
0000
0100
1000
0001
0100
,  // measure 15
0001
0000
0100
0000
0010
0000
1000
0000
0100
0000
0010
0000
0001
1000
0001
0100
,  // measure 16
0010
1000
0100
0001
0100
1000
0010
0000
,  // measure 17
1010
0101
2002
3003
,  // measure 18
0010
0000
0000
1000
0000
0100
0000
0010
0001
0000
0000
0100
0000
0001
0000
1000
,  // measure 19
0010
0000
0000
0100
0000
0001
0000
1000
0001
0000
0000
0100
0000
0001
0000
1000
,  // measure 20
0100
0000
0000
0010
0000
0100
0000
1000
0010
0000
0000
1000
0000
0100
0000
0010
,  // measure 21
0001
0000
0000
0100
0000
0010
0000
1000
0001
0000
0000
0010
0000
0100
0000
1000
,  // measure 22
0010
0000
0000
0100
0000
1000
0000
0100
0001
0000
0000
0010
0000
0100
0000
0001
,  // measure 23
0100
0000
0000
1000
0000
0001
0000
0100
0010
0000
0000
0100
0000
0001
0000
0010
,  // measure 24
0100
0000
0000
1000
0000
0010
0000
0100
0010
0000
0000
1000
0000
0100
0000
0010
,  // measure 25
0001
0000
0000
1000
0000
0001
0000
0100
0010
0000
0000
1000
0000
0100
0000
0100
,  // measure 26
0010
0001
1000
0001
0010
0001
1000
0001
1000
0000
0001
0000
0001
0000
0001
0000
,  // measure 27
0010
0100
1000
0001
0100
0001
0100
0001
0010
0000
0100
0000
0100
0000
0100
0000
,  // measure 28
1000
0010
0100
0001
0010
0100
1000
0100
1000
0000
0001
0000
0001
0000
0001
0000
,  // measure 29
0100
0010
1000
0100
0010
0100
0010
0001
0100
0000
0010
0000
0010
0000
0010
0000
,  // measure 30
1000
0000
0000
1001
0000
1001
0000
0010
0200
0000
0000
0000
0300
0000
0000
0000
,  // measure 31
0001
0000
0000
0110
0000
0110
0000
0001
2000
0000
0000
0000
3000
0000
0000
0000
,  // measure 32
1000
0001
0100
0000
0001
1000
0100
0000
,  // measure 33
0010
0001
1000
0001
1000
0001
1000
0001
0010
0100
0010
0100
0010
0100
0010
0001
,  // measure 34
1000
0000
0001
1000
0000
1000
0001
0010
0100
1000
0010
0000
0100
0000
0000
0000
,  // measure 35
0010
0000
0100
0001
0000
0001
0100
0010
1000
0100
0010
0000
0001
0000
0000
0000
,  // measure 36
0100
0000
0010
1000
0000
1000
0001
0010
0100
1000
0010
0000
0100
0000
0000
0000
,  // measure 37
0010
0000
0100
0010
0000
0010
0100
0010
1000
0100
0010
0000
0001
0000
1000
0000
,  // measure 38
0100
0000
0010
0001
0000
0001
0100
0010
1000
0001
1000
0000
0100
0000
0000
0000
,  // measure 39
0010
0000
0001
0100
0000
0100
0010
1000
0100
0010
0100
0000
0010
0000
0000
0000
,  // measure 40
0001
0000
1000
0001
0000
0001
1000
0010
1000
0100
0010
0000
0001
0000
0000
0000
,  // measure 41
0011
0000
0000
0000
0000
1100
0000
0000
0000
0000
0001
0000
0100
0000
0000
0000
,  // measure 42
0010
1000
0100
0010
0100
0010
0001
0100
0020
0030
0002
0003
0020
0030
2000
3000
,  // measure 43
0100
0010
0001
0100
0001
0100
0001
0010
0200
0300
0002
0003
0200
0300
2000
3000
,  // measure 44
0010
0100
0001
0010
0100
1000
0010
0100
0002
0003
0020
0030
0200
0300
2000
3000
,  // measure 45
0010
0100
0001
0010
0100
1000
0100
0010
0002
0003
0200
0300
0020
0030
0200
0300
,  // measure 46
0010
1000
0100
0010
0001
1000
0001
1000
0002
0003
2000
3000
0200
0300
0020
0030
,  // measure 47
0001
1000
0001
1000
0100
0010
0100
0010
0002
0003
0200
0300
0020
0030
2000
3000
,  // measure 48
0010
1000
0100
0001
0100
1000
0010
0001
0010
1000
0100
0010
0001
0100
1000
0100
,  // measure 49
0001
0010
0100
1000
0010
0001
0010
0100
0001
1000
0100
0010
1000
0010
0001
0200
,  // measure 50
0020
0000
0000
0000
,  // measure 51
0000
0000
0000
0330
;
