#TITLE:DROP THE BOMB;
#SUBTITLE:;
#ARTIST:Scotty D.;
#TITLETRANSLIT:;
#SUBTITLETRANSLIT:;
#ARTISTTRANSLIT:;
#GENRE:;
#CREDIT:;
#MENUCOLOR:;
#METERTYPE:DDR;
#BANNER:DROP THE BOMB.png;
#BACKGROUND:DROP THE BOMB-bg.png;
#LYRICSPATH:DTB.lrc;
#CDTITLE:./CDTITLES/DANCE DANCE REVOLUTION HOME VERSION.PNG;
#MUSIC:DROP THE BOMB.mp3;
#OFFSET:-0.058;
#SAMPLESTART:72.860;
#SAMPLELENGTH:15.000;
#SELECTABLE:YES;
#LISTSORT:;
#DISPLAYBPM:150.000;
#BPMS:0.000=150.140;
#STOPS:;
#BGCHANGES:;
#ATTACKS:;

//---------------dance-single - 5thMix-Edit#801----------------
#NOTES:
     dance-single:
     5thMix-Edit#801:
     Challenge:
     10:
     0.737,0.773,0.296,0.000,0.692: // measure 1
0000
0000
0000
0000
,  // measure 2
0000
0000
0000
0000
,  // measure 3
0010
0000
1000
0001
0100
0000
0010
0100
0000
0010
0100
0000
0001
0000
1000
0000
,  // measure 4
0010
0000
1000
0001
0100
0000
0010
0100
0000
0010
0100
0000
0001
0000
1000
0000
,  // measure 5
0010
0000
1000
0001
0100
0000
0010
0100
0000
0010
0100
0000
0001
0000
1000
0000
,  // measure 6
0010
0001
0000
0000
0010
1000
0000
0000
0010
0001
0000
0000
0010
1000
0000
0000
,  // measure 7
0010
0001
0000
0000
0010
1000
0000
0000
0010
0001
0000
0000
0010
1000
0000
0000
,  // measure 8
0010
0000
1000
0000
0001
0000
1000
0000
0001
0100
0001
0000
1000
0000
0100
0000
,  // measure 9
0010
0000
0001
0000
1000
0000
0100
0000
1000
0001
1000
0000
0001
0000
1000
0000
,  // measure 10
0010
0000
1000
0000
0001
0000
1000
0000
0001
0100
0001
0000
1000
0000
0100
0000
,  // measure 11
0010
0000
0001
0000
1000
0000
0100
0000
1000
0001
1000
0000
0001
0000
1000
0000
,  // measure 12
0010
0000
1000
0000
0001
0000
1000
0000
0001
0100
0001
0000
1000
0000
0100
0000
,  // measure 13
0010
0000
0001
0000
1000
0000
0100
0000
1000
0001
1000
0000
0001
0000
1000
0000
,  // measure 14
0010
0000
1000
0000
0001
0000
1000
0000
0001
0100
0001
0000
1000
0000
0100
0000
,  // measure 15
0010
0000
0001
0000
1000
0000
0100
0000
1000
0001
1000
0000
0001
0000
1000
0000
,  // measure 16
0010
0000
0100
0000
0100
0000
0100
0010
,  // measure 17
1000
0000
0001
1000
0000
0001
0000
1000
,  // measure 18
0010
0000
0100
0000
0100
0000
0100
0010
,  // measure 19
1000
0000
0000
0000
0001
0000
1000
0000
0000
0001
0000
0000
1000
0000
0000
0000
,  // measure 20
0011
0011
0011
0000
1100
1100
1100
0000
,  // measure 21
1010
1010
1010
0000
0101
0101
0101
0000
,  // measure 22
0010
0010
0010
0000
0100
0100
0100
0000
,  // measure 23
0010
0100
0001
1000
0010
0100
1000
0100
,  // measure 24
0001
0000
0010
0100
1000
0000
0010
0100
0000
0001
1000
0000
0100
0000
0010
0000
,  // measure 25
0001
0000
1000
0010
0100
0000
0001
1000
0000
0001
1000
0000
0010
0000
0100
0000
,  // measure 26
0001
0000
1000
0100
0010
0000
0001
0010
0000
0001
1000
0000
0010
0000
1000
0000
,  // measure 27
0100
0000
1000
0001
0100
0000
0001
0100
0000
0010
0100
0000
0001
0000
0100
0000
,  // measure 28
0010
1000
0100
1000
0100
0000
1000
0001
0000
0100
0010
0000
1001
0000
0110
0000
,  // measure 29
0011
0000
0001
0010
0001
0000
1000
0010
0000
1000
0010
0000
1000
0000
0010
0000
,  // measure 30
1000
0001
1000
0001
1000
0000
0010
0100
0000
0001
1000
0000
0110
0000
0110
0000
,  // measure 31
1001
0000
1000
0001
1000
0000
0001
0100
0000
0010
0100
0000
1001
0000
0010
0000
,  // measure 32
1001
1001
1001
1001
,  // measure 33
0010
0000
0000
0010
0000
0000
1000
0000
0001
0000
0000
0000
0100
0000
0000
0000
,  // measure 34
0010
0000
0000
0010
0000
0000
1000
0000
0001
0000
0000
0000
0100
0000
0000
0000
,  // measure 35
0010
0000
0100
0010
0000
0000
1000
0000
0001
0000
0000
0000
0100
0000
0000
0000
,  // measure 36
0010
0000
0100
0010
0000
0000
1000
0000
0001
0000
0000
0000
0100
0000
0000
0000
,  // measure 37
0010
0000
0000
0010
0100
0000
0000
0100
0010
0000
0000
0010
0100
0000
0000
0100
,  // measure 38
0001
0000
0000
0001
1000
0000
0000
1000
0001
0000
0000
0001
1000
0000
0000
1000
,  // measure 39
0010
0000
0010
0100
0000
0100
0010
0000
0010
0100
0000
0100
,  // measure 40
0001
0000
0001
1000
0000
1000
0001
0000
0001
1000
0000
1000
,  // measure 41
0010
0000
0000
0000
0000
0000
0000
0000
0000
0010
0000
0000
0100
0000
0000
0000
0000
0000
0000
0000
0100
0000
0000
0000
0001
0000
0000
0000
0000
0000
0000
0000
0000
0001
0000
0000
1000
0000
0000
0000
0000
0000
0000
0000
1000
0000
0000
0000
,  // measure 42
0001
0000
0000
0000
0000
0000
0000
0000
0000
0001
0000
0000
0010
0000
0000
0000
0000
0000
0000
0000
0010
0000
0000
0000
0100
0000
0000
0000
0000
0000
0000
0000
0000
0100
0000
0000
1000
0000
0000
0000
0000
0000
0000
0000
1000
0000
0000
0000
,  // measure 43
0010
0000
0000
0000
0000
0000
0000
0000
0000
0010
0000
0000
1000
0000
0000
0000
0000
0000
0000
0000
1000
0000
0000
0000
0001
0000
0000
0000
0000
0000
0000
0000
0000
0001
0000
0000
0100
0000
0000
0000
0000
0000
0000
0000
0100
0000
0000
0000
,  // measure 44
0110
0000
0000
0000
0000
0000
0000
0000
0000
0010
0000
0000
1001
0000
0000
0000
0000
0000
0000
0000
0000
1000
0000
0000
0110
0000
0000
0000
0000
0000
0000
0000
0100
0000
0000
0000
1001
0000
0000
0000
0000
0000
0000
0000
0001
0000
0000
0000
,  // measure 45
0010
0000
0010
0100
0000
0001
1000
0000
0001
0000
0000
0000
0100
0000
0000
0000
,  // measure 46
0010
0000
0010
0100
0000
0001
1000
0000
0001
0000
1000
0000
0001
0000
1000
0000
,  // measure 47
0010
0000
0100
0010
0100
0000
0010
0100
0000
0010
0100
0000
0001
0000
1000
0000
,  // measure 48
0010
0000
0100
0001
0010
0000
0001
0010
0000
0001
0010
0000
0100
0000
1000
0000
,  // measure 49
0001
0000
0010
0100
1000
0000
0100
0010
0000
0001
0010
0000
0100
0000
1000
0000
,  // measure 50
0010
0000
0100
0001
0100
0000
0010
1000
0000
0010
0100
0000
0001
0000
0100
0000
,  // measure 51
0010
1000
0001
0100
0010
0000
1000
0001
0000
0100
0010
0000
1000
0000
0001
0000
,  // measure 52
1000
0010
0100
0001
1000
0000
0010
0100
0000
0001
1000
0000
0010
0000
0100
0000
,  // measure 53
0001
0010
0001
0010
0001
0000
0010
0001
0000
0010
0001
0000
0010
0000
0001
0000
,  // measure 54
1000
0100
1000
0100
1000
0000
0100
1000
0000
0100
1000
0000
0100
0000
1000
0000
,  // measure 55
0010
0000
0100
0010
0100
0000
0010
0100
0000
0010
0100
0000
0001
0000
0001
0000
,  // measure 56
1000
0100
0010
0001
1000
0100
0010
0001
1000
0100
0010
0001
,  // measure 57
0010
1001
0000
0000
;
