#TITLE:Consuela;
#SUBTITLE:;
#ARTIST:Captain.T;
#TITLETRANSLIT:;
#SUBTITLETRANSLIT:;
#ARTISTTRANSLIT:;
#GENRE:;
#CREDIT:;
#MENUCOLOR:;
#METERTYPE:DDR;
#BANNER:Consuela.png;
#BACKGROUND:Consuela-bg.png;
#LYRICSPATH:Consuela.lrc;
#CDTITLE:!tsm-cdtitle.png;
#MUSIC:Consuela.mp3;
#OFFSET:-0.041;
#SAMPLESTART:43.195;
#SAMPLELENGTH:12.000;
#SELECTABLE:YES;
#LISTSORT:;
#BPMS:0.000=182.000;
#STOPS:;
#BGCHANGES:;
#ATTACKS:;

//---------------dance-single - TimeSpaceMage----------------
#NOTES:
     dance-single:
     TimeSpaceMage:
     Challenge:
     9:
     0.752,0.735,0.618,0.319,0.020: // measure 1
0000
0000
0000
0000
,  // measure 2
0000
0000
0000
0000
,  // measure 3
0000
0000
0000
0000
,  // measure 4
0000
0000
0000
0000
,  // measure 5
0000
0000
0000
0000
,  // measure 6
0010
1000
0010
1000
,  // measure 7
0010
0100
0010
0100
,  // measure 8
0001
0001
1000
1000
,  // measure 9
0110
1100
0101
0110
,  // measure 10
1000
0001
0100
0001
1000
0001
0100
0001
,  // measure 11
1000
0000
0001
0000
0100
0000
1000
0000
0100
0000
0001
0010
0001
0000
0001
0000
,  // measure 12
1000
0010
1000
0001
1000
0010
1000
0001
,  // measure 13
0100
1000
0100
0001
0100
0010
1000
0100
,  // measure 14
0010
0001
1000
0001
0010
0001
1000
0001
,  // measure 15
0010
0000
0100
0000
1000
0000
0001
0000
1000
0000
0100
1000
0001
0000
0001
0000
,  // measure 16
0100
0010
0100
0001
0100
0010
0100
0001
,  // measure 17
1000
0100
0010
0100
1000
0010
0100
0001
,  // measure 18
1001
1000
0001
0100
1000
1000
0100
0001
,  // measure 19
1000
0100
0010
0200
0000
0310
0001
1000
,  // measure 20
0010
0100
0010
0220
0330
0000
0100
0001
,  // measure 21
1000
0100
0010
0022
0033
0010
0001
1000
,  // measure 22
0001
0010
0010
0100
0000
0100
1000
0010
,  // measure 23
0100
0202
0303
0001
0000
0010
0001
1000
,  // measure 24
1001
1100
0101
1010
,  // measure 25
0001
0010
0001
0100
0001
0010
0100
1000
,  // measure 26
1001
0001
1000
1000
0001
0100
0001
0001
,  // measure 27
1000
0100
0000
0220
0000
0330
0001
0010
,  // measure 28
0001
0001
1000
0100
1000
1000
0100
0010
,  // measure 29
0000
0011
0000
2200
0000
3300
0001
0100
,  // measure 30
1000
0100
0010
0100
0010
0010
0100
0101
,  // measure 31
0000
1100
0000
0022
0000
0033
0010
0000
,  // measure 32
1002
0000
1003
2010
0000
3100
0101
0000
,  // measure 33
2002
0000
0000
0010
3003
0000
0100
0000
,  // measure 34
1001
1000
0010
0100
0001
1000
1100
0000
,  // measure 35
0001
1000
1000
0010
0000
0100
0010
1000
,  // measure 36
1001
0001
1000
0020
0000
0000
0130
0000
,  // measure 37
0001
0100
1000
0100
0000
0001
0100
0000
,  // measure 38
0110
0010
1000
0100
0010
0001
0011
0000
,  // measure 39
1000
0010
0100
0001
0010
0100
1100
0000
,  // measure 40
0110
0011
0101
1001
,  // measure 41
1100
0000
0010
0002
0000
0103
0010
1000
,  // measure 42
1001
0001
0001
0100
1000
0100
1100
0000
,  // measure 43
1000
0100
0001
0010
0000
0110
0000
0000
,  // measure 44
0100
1000
0001
0020
0000
0000
0100
0100
,  // measure 45
0100
0000
0001
0001
0001
0000
0130
0000
,  // measure 46
1000
0000
1100
0000
0001
0010
0001
0100
,  // measure 47
0010
1001
1010
0101
,  // measure 48
0011
0000
1100
0000
0010
0001
0100
0010
,  // measure 49
2000
0000
0002
0000
0100
0000
3003
0010
,  // measure 50
1010
1000
0001
0100
0101
0001
1000
0100
,  // measure 51
0010
0001
0000
0022
0000
0033
0000
0001
,  // measure 52
1100
1000
0001
0100
0110
0010
1000
0100
,  // measure 53
1000
0100
0000
0022
0000
0033
0000
0100
,  // measure 54
0001
0100
0010
0100
1000
0100
0010
0100
,  // measure 55
0001
0100
0000
0202
0000
0303
0000
0001
,  // measure 56
1000
0010
0001
0010
1000
0010
0100
0010
,  // measure 57
1000
0010
0000
2200
0000
3300
0000
1000
,  // measure 58
1001
0001
0100
0010
1000
0100
0000
0010
,  // measure 59
0011
0001
0100
0010
1000
0100
0000
0010
,  // measure 60
1000
0100
1000
1000
0001
0100
0001
0001
,  // measure 61
1000
0010
1000
1000
0001
0010
0001
0000
,  // measure 62
0110
0000
0000
0001
1000
0000
0001
0000
,  // measure 63
0100
0010
0100
0001
0100
0000
0010
0000
,  // measure 64
1000
0100
1000
0001
0000
0000
1000
0100
,  // measure 65
0010
0110
1100
0101
,  // measure 66
1001
0001
0100
0001
0010
0100
0010
0001
,  // measure 67
0100
0000
0100
0000
0010
0000
1000
0000
0100
0000
0010
0100
0010
0000
0001
0000
,  // measure 68
1001
1000
0100
1000
0010
0100
0010
1000
,  // measure 69
0100
0100
0010
0001
0100
0100
0010
1000
,  // measure 70
1001
0001
0010
0001
1000
1000
0001
1000
,  // measure 71
0001
0000
0001
0000
1000
0000
0001
0000
0100
0000
0010
0100
0010
0000
1000
0000
,  // measure 72
1001
0001
0100
0001
1000
0100
0110
0010
,  // measure 73
0001
1000
0100
1000
0010
0100
0002
0000
,  // measure 74
0200
0000
0000
0303
;
