#TITLE:BIZARRE LOVE TRIANGLE;
#SUBTITLE:;
#ARTIST:Jerry;
#TITLETRANSLIT:;
#SUBTITLETRANSLIT:;
#ARTISTTRANSLIT:;
#GENRE:;
#CREDIT:TimeSpaceMage;
#MENUCOLOR:;
#NEWMETERSYSTEM:NO;
#BANNER:BIZARRE LOVE TRIANGLE.png;
#BACKGROUND:BIZARRE LOVE TRIANGLE-bg.png;
#LYRICSPATH:BLT-lyrics.lrc;
#CDTITLE:!tsm-cdtitle.png;
#MUSIC:BIZARRE LOVE TRIANGLE.mp3;
#OFFSET:-0.563;
#SAMPLESTART:32.800;
#SAMPLELENGTH:12.000;
#SELECTABLE:YES;
#LISTSORT:;
#DISPLAYBPM:119.000;
#BPMS:0.000=119.000;
#STOPS:;
#BGCHANGES:;
#ATTACKS:;

//---------------dance-single - TimeSpaceMage----------------
#NOTES:
     dance-single:
     TimeSpaceMage:
     Challenge:
     9:
     0.748,0.934,0.165,0.515,0.767: // measure 1
0000
0000
0000
0000
,  // measure 2
0000
0000
0000
0000
,  // measure 3
0000
0000
0000
0000
,  // measure 4
0000
0000
0000
0000
,  // measure 5
0100
0000
1000
0100
1000
0000
0100
0010
0100
0000
1000
0100
1000
0000
0100
0010
,  // measure 6
0001
0000
0010
0001
0010
0000
0001
0100
0001
0000
0010
0001
0010
0000
0100
1000
,  // measure 7
0010
0000
1000
0010
1000
0000
0010
0100
0010
0000
1000
0010
1000
0000
0010
0100
,  // measure 8
0001
0000
0100
0001
0100
0000
0001
0100
0001
0000
0101
0000
0100
0000
0001
1000
,  // measure 9
0100
0000
1000
0100
1000
0000
0100
0010
0100
0000
1000
0100
1000
0000
0100
0010
,  // measure 10
0001
0000
0010
0001
0010
0000
0001
0100
0001
0000
0010
0000
0011
0000
0100
1000
,  // measure 11
0010
0000
1000
0010
1000
0000
0010
0100
0010
0000
1000
0010
1000
0000
0010
0100
,  // measure 12
0001
0000
0100
0001
0100
0000
0010
0000
0100
0001
0100
0000
0010
0000
1000
0000
,  // measure 13
0010
0000
0000
1000
0010
0000
0100
0010
0000
1000
0010
0000
0000
0000
0000
0000
,  // measure 14
1000
0000
0000
0001
0010
0000
0100
0010
0000
0001
0010
0000
0000
0000
0000
0000
,  // measure 15
0100
0000
0000
1000
0010
0000
0100
0010
0000
1000
0010
0000
0000
0000
0000
0000
,  // measure 16
1000
0100
1000
0100
0010
0100
1000
0100
0010
0001
1000
0001
0010
0001
0010
0000
,  // measure 17
1000
0100
0010
0100
1000
0000
0001
0100
0010
0100
0001
0010
0100
0000
1000
0100
,  // measure 18
1000
0001
0100
0001
0100
0000
0100
0010
0100
1000
0100
0001
0100
0000
0010
1000
,  // measure 19
0001
0010
0100
1000
0010
0000
0100
0001
0010
0001
0010
0100
1000
0000
0100
0010
,  // measure 20
0100
0010
0001
1000
0001
0000
0100
0001
0101
0000
0100
0000
1010
0000
1000
0000
,  // measure 21
0010
0100
1000
0100
0010
0000
1000
0100
0010
0100
1000
0100
1000
0000
0100
0010
,  // measure 22
0100
0001
0100
1000
0100
0000
0010
0001
0100
1000
0100
0010
0100
0000
0001
0100
,  // measure 23
0010
1000
0001
0100
0010
0000
1000
0010
0100
0001
1000
0010
0100
0000
0001
0100
,  // measure 24
0101
1000
0100
1100
0010
0001
0011
0100
,  // measure 25
1000
0000
0000
0000
1000
0000
0000
1000
0010
0000
0100
0000
0010
0000
2000
0000
,  // measure 26
0000
0000
0100
0000
3100
0000
0000
0010
0001
0000
0100
0000
0001
0000
0200
0000
,  // measure 27
0000
0000
0010
0000
0010
0000
0300
0000
1000
0000
0000
0001
0010
0000
0001
0000
,  // measure 28
0000
0000
1000
0000
1100
0000
0010
0000
0011
0000
1000
0000
1001
0000
0010
1000
,  // measure 29
0001
0000
0000
0000
0000
0000
0000
0000
0000
0000
0000
0000
0011
0000
0000
0000
0000
0000
0000
0000
0000
0000
0000
0000
0001
0000
0000
0000
0000
0000
0000
0000
2000
3000
0000
0000
0000
0000
0000
0000
1000
0000
0000
0000
0000
0000
0000
0000
0100
0000
0000
0000
0000
0000
0000
0000
0010
0000
0000
0000
0001
0000
0000
0000
,  // measure 30
0020
0030
0000
0000
0000
0000
0000
0000
0010
0000
0000
0000
0000
0000
0000
0000
0200
0300
0000
0000
0000
0000
0000
0000
1000
0000
0000
0000
0000
0000
0000
0000
0200
0300
0000
0000
0000
0000
0000
0000
0010
0000
0000
0000
0000
0000
0000
0000
0010
0000
0000
0000
0000
0000
0000
0000
0002
0003
0000
0000
0010
0000
0000
0000
,  // measure 31
0001
0000
0000
0000
0000
0000
0000
0000
0001
0000
0000
0000
0000
0000
0000
0000
0200
0300
0000
0000
0000
0000
0000
0000
0010
0000
0000
0000
0000
0000
0000
0000
0200
0300
0000
0000
0000
0000
0000
0000
1000
0000
0000
0000
0000
0000
0000
0000
1000
0000
0000
0000
0000
0000
0000
0000
0200
0300
0000
0000
0010
0000
0000
0000
,  // measure 32
0100
0000
0000
0000
0000
0000
0000
0000
0001
0000
0000
0000
0000
0000
0000
0000
0020
0030
0000
0000
0000
0000
0000
0000
1000
0000
0000
0000
0000
0000
0000
0000
0020
0030
0000
0000
0000
0000
0000
0000
0001
0000
0000
0000
0000
0000
0000
0000
0001
0000
0000
0000
0000
0000
0000
0000
0010
0000
0000
0000
0001
0000
0000
0000
,  // measure 33
1000
0001
0010
0000
0100
0000
0010
0001
0010
0000
0000
1000
0010
0000
0100
0010
,  // measure 34
0000
1000
0010
0000
0000
0000
0000
0000
0001
0000
0000
1000
0010
0000
0100
0010
,  // measure 35
0000
1000
0010
0000
0000
0000
0000
0000
0100
0000
0000
0001
0010
0000
0100
0010
,  // measure 36
0000
0001
0010
0000
0000
0000
0000
0000
1000
0100
1000
0100
0010
0100
1000
0100
,  // measure 37
0010
0000
0000
0000
0001
0000
0000
0000
1000
0000
0000
0000
0001
0000
0000
0000
0010
0000
0000
0000
0001
0000
0000
0000
0010
0000
0000
0000
0000
0000
0000
0000
2000
3000
0000
0000
0100
0000
0000
0000
0010
0000
0000
0000
0100
0000
0000
0000
2000
3000
0000
0000
0000
0000
0000
0000
0001
0000
0000
0000
0200
0300
0000
0000
,  // measure 38
0010
0000
0000
0000
0100
0000
0000
0000
0002
0003
0000
0000
0010
0000
0000
0000
0100
0000
0000
0000
0000
0000
0000
0000
1000
0000
0000
0000
0100
0000
0000
0000
2000
3000
0000
0000
0001
0000
0000
0000
0100
0000
0000
0000
0001
0000
0000
0000
0200
0300
0000
0000
0000
0000
0000
0000
0100
0000
0000
0000
0020
0030
0000
0000
,  // measure 39
0100
0000
0000
0000
1000
0000
0000
0000
0200
0300
0000
0000
0001
0000
0000
0000
0100
0000
0000
0000
0000
0000
0000
0000
0010
0000
0000
0000
1000
0000
0000
0000
0002
0003
0000
0000
0010
0000
0000
0000
0100
0000
0000
0000
1000
0000
0000
0000
0020
0030
0000
0000
0000
0000
0000
0000
0100
0000
0000
0000
0002
0003
0000
0000
,  // measure 40
0010
0000
0000
0000
0001
0000
0000
0000
0020
0030
0000
0000
0100
0000
0000
0000
1000
0000
0000
0000
0000
0000
0000
0000
0100
0000
0000
0000
0010
0000
0000
0000
0200
0300
0000
0000
0010
0000
0000
0000
0001
0000
0000
0000
1000
0000
0000
0000
0002
0003
0000
0000
0000
0000
0000
0000
0100
0000
0000
0000
0002
0003
0000
0000
,  // measure 41
0101
0000
0000
0000
0000
0000
0000
0000
0200
0300
0000
0000
0000
0000
0000
0000
1010
0000
0000
0000
0000
0000
0000
0000
1000
0000
0000
0000
0000
0000
0000
0000
0020
0030
0000
0000
0100
0000
0000
0000
1000
0000
0000
0000
0100
0000
0000
0000
0020
0030
0000
0000
0000
0000
0000
0000
1000
0000
0000
0000
0200
0300
0000
0000
,  // measure 42
0010
0000
0000
0000
0100
0000
0000
0000
2000
3000
0000
0000
0100
0000
0000
0000
1000
0000
0000
0000
0000
0000
0000
0000
0100
0000
0000
0000
0010
0000
0000
0000
0200
0300
0000
0000
0001
0000
0000
0000
0100
0000
0000
0000
1000
0000
0000
0000
0200
0300
0000
0000
0000
0000
0000
0000
0010
0000
0000
0000
0002
0003
0000
0000
,  // measure 43
0100
0000
0000
0000
1000
0000
0000
0000
0200
0300
0000
0000
0010
0000
0000
0000
0100
0000
0000
0000
0000
0000
0000
0000
0001
0000
0000
0000
0100
0000
0000
0000
0020
0030
0000
0000
1000
0000
0000
0000
0001
0000
0000
0000
0100
0000
0000
0000
0020
0030
0000
0000
0000
0000
0000
0000
1000
0000
0000
0000
0020
0030
0000
0000
,  // measure 44
0100
0000
0000
0000
0001
0000
0000
0000
2000
3000
0000
0000
0010
0000
0000
0000
0100
0000
0000
0000
0000
0000
0000
0000
0001
0000
0000
0000
0100
0000
0000
0000
0202
0303
0000
0000
0000
0000
0000
0000
1000
0000
0000
0000
0000
0000
0000
0000
0100
0000
0000
0000
0000
0000
0000
0000
2200
3300
0000
0000
0000
0000
0000
0000
,  // measure 45
0010
0000
0000
0000
0000
0000
0000
0000
0001
0000
0000
0000
0000
0000
0000
0000
0022
0033
0000
0000
0000
0000
0000
0000
0100
0000
0000
0000
0000
0000
0000
0000
2000
0000
0000
0000
0000
0000
0000
0000
0000
0000
0000
0000
0000
0000
0000
0000
0000
0000
0000
0000
0000
0000
0000
0000
0002
0000
0000
0000
0000
0000
0000
0000
,  // measure 46
0000
0000
0020
0000
0000
0200
0000
0000
,  // measure 47
0000
0000
0000
0000
,  // measure 48
0000
0000
0000
3333
;
