#TITLE:BITTER CHOCOLATE STRIKER;
#SUBTITLE:;
#ARTIST:L.E.D.-G;
#TITLETRANSLIT:;
#SUBTITLETRANSLIT:;
#ARTISTTRANSLIT:;
#GENRE:;
#CREDIT:;
#MENUCOLOR:;
#METERTYPE:DDR;
#BANNER:BITTER CHOCOLATE STRIKER.png;
#BACKGROUND:BITTER CHOCOLATE STRIKER-bg.png;
#LYRICSPATH:;
#CDTITLE:!tsm-cdtitle.png;
#MUSIC:BITTER CHOCOLATE STRIKER.mp3;
#OFFSET:-5.870;
#SAMPLESTART:23.314;
#SAMPLELENGTH:12.000;
#SELECTABLE:YES;
#LISTSORT:;
#BPMS:0.000=165.000,145.000=82.500,161.000=165.000;
#STOPS:48.000=2.545,209.000=2.545;
#BGCHANGES:;
#ATTACKS:;

//---------------dance-single - ----------------
#NOTES:
     dance-single:
     TimeSpaceMage:
     Challenge:
     11:
     0.871,1.000,0.251,0.209,1.000: // measure 1
1000
0100
0010
0001
0000
0000
1000
0100
0010
0001
0000
0000
,  // measure 2
0001
0010
0100
1000
0000
0000
0001
0010
0100
1000
0000
0000
,  // measure 3
1000
0010
0100
0001
0000
0000
1000
0010
0100
0001
0000
0000
,  // measure 4
0001
0100
0010
1000
0000
0000
0001
0100
0010
1000
0000
0000
,  // measure 5
1000
0010
1000
0010
1000
0010
0100
0001
0100
0001
0100
0001
,  // measure 6
0010
0100
0010
0100
0010
0100
1000
0001
1000
0001
1000
0001
,  // measure 7
0010
0100
1000
0001
0010
0100
1000
0010
0100
0001
1000
0010
,  // measure 8
1000
0100
0010
0100
0000
0101
0000
0000
0000
0010
1000
0010
,  // measure 9
0100
0001
0100
0001
0100
0001
1000
0010
1000
0010
1000
0010
,  // measure 10
0100
0001
0010
0100
1000
0001
0100
0001
0010
0100
1000
0001
,  // measure 11
1000
0010
0100
0001
0010
0100
1000
0010
0100
0001
0010
0100
,  // measure 12
1000
0001
0100
0001
1000
0100
1000
0001
0100
0001
1000
0100
,  // measure 13
2200
0000
0000
3300
0000
0000
0000
0000
0000
0000
0000
0000
0000
0000
0000
0000
0000
0000
0000
0000
0000
0000
0000
0000
0000
0000
0000
0000
0000
0000
0000
0000
0000
0000
0000
0000
0000
0000
0000
0000
0000
0000
0000
0000
0000
0000
0000
0000
1000
0000
0000
0000
0000
0000
0000
0000
0000
0000
0000
0000
0000
0000
0000
0000
0000
0000
0000
0000
0000
0000
0000
0000
0000
0000
0000
0000
0000
0000
0000
0000
0100
0000
0000
0000
0000
0000
0000
0000
0000
0000
0000
0000
0000
0000
0000
0000
0010
0000
0000
0000
0000
0000
0000
0000
0000
0000
0000
0000
0000
0000
0000
0000
0001
0000
0000
0000
0000
0000
0000
0000
0000
0000
0000
0000
0000
0000
0000
0000
0010
0000
0000
0000
0000
0000
0000
0000
0000
0000
0000
0000
0000
0000
0000
0000
0100
0000
0000
0000
0000
0000
0000
0000
0000
0000
0000
0000
0000
0000
0000
0000
0000
0000
0000
0000
0000
0000
0000
0000
0000
0000
0000
0000
0000
0000
0000
0000
1000
0000
0000
0000
0000
0000
0000
0000
0000
0000
0000
0000
0000
0000
0000
0000
,  // measure 14
0010
0000
0100
0101
0000
0001
0011
0000
0010
0110
0000
0100
,  // measure 15
1100
0000
2000
3010
0000
0020
0130
0001
1000
0100
0010
0001
,  // measure 16
0010
0000
0200
1300
0000
2000
3010
0000
0020
0130
0000
0200
,  // measure 17
0301
0000
0010
0001
0000
1000
0100
0010
0100
1000
0000
1000
,  // measure 18
0001
0000
0001
0101
0000
0100
0110
0000
0010
1010
0000
1000
,  // measure 19
1100
0000
0200
0310
0000
0002
0013
0100
1000
0010
0100
0001
,  // measure 20
0010
0100
0010
0001
1000
0001
1000
0001
1000
0001
0000
0100
,  // measure 21
0010
0000
0010
0100
0000
0100
0001
0010
0100
1000
0000
1100
,  // measure 22
0000
0000
1000
0100
0000
0010
0001
1000
0010
1000
0000
1010
,  // measure 23
0000
0000
0100
0001
0000
0010
0001
1000
0100
1000
0000
0001
,  // measure 24
0010
0000
0100
0010
0001
0010
0100
0010
0001
0100
0000
0100
,  // measure 25
0010
0000
1000
0010
0000
0010
1000
0100
0010
0001
0000
0011
,  // measure 26
0000
0000
0001
0010
0000
0100
1000
0001
0100
0001
0000
0101
,  // measure 27
0000
0000
0010
1000
0000
0100
1000
0001
0010
0001
0000
1000
,  // measure 28
0100
0000
0010
0100
1000
0100
0010
0100
1000
0010
0000
0010
,  // measure 29
0100
0000
0001
1000
0000
0100
0010
0001
0010
0100
0000
1000
,  // measure 30
0010
0000
0100
0101
0000
0001
0011
0000
0010
0110
0000
0100
,  // measure 31
1100
0000
2000
3010
0000
0020
0130
0001
1000
0100
0010
0001
,  // measure 32
0010
0000
0200
1300
0000
2000
3010
0000
0020
0130
0000
0200
,  // measure 33
0301
0000
0010
0001
0000
1000
0100
0010
0100
1000
0000
1000
,  // measure 34
0001
0000
0001
0101
0000
0100
0110
0000
0010
1010
0000
1000
,  // measure 35
1100
0000
0200
0310
0000
0002
0013
0100
1000
0010
0100
0001
,  // measure 36
0010
0100
0010
0001
1000
0001
1000
0001
1000
0001
0000
0100
,  // measure 37
0010
0000
0010
0200
0000
0000
0000
0000
0000
0000
0000
0000
,  // measure 38
0000
0302
0000
0023
,  // measure 39
0000
0000
0000
0000
0000
0000
0130
0000
0000
1000
0100
1000
0010
0000
0010
0100
0000
0001
0100
0010
0100
0010
1000
0010
,  // measure 40
1000
0010
0100
0001
0100
0001
0010
0000
0001
1000
0010
1000
0001
0000
0001
0010
0000
0001
1000
0100
1000
0100
1000
0100
,  // measure 41
0010
0001
0010
0001
0000
0001
0100
0000
0000
0000
0100
0000
0001
0000
0100
0000
0001
0000
0010
0000
0000
0000
0010
0000
,  // measure 42
0100
0000
1000
0100
0010
0100
0010
0001
0010
0001
0010
0100
,  // measure 43
1000
0100
1000
0010
0000
1000
0001
0010
0001
1000
0000
1000
,  // measure 44
0010
0000
1000
0001
0000
0001
0100
0001
0100
0010
1000
0010
,  // measure 45
1000
0000
1000
0100
0000
0100
1000
0010
1000
0100
0000
0100
,  // measure 46
0010
0000
0001
0010
0100
0010
0100
1000
0100
1000
0100
0010
,  // measure 47
0001
0010
0001
0100
0000
0001
1000
0100
1000
0001
0000
0001
,  // measure 48
0100
0000
0001
1000
0000
1000
0010
1000
0010
0100
0001
0100
,  // measure 49
0001
0000
0001
0101
0000
0010
1000
0010
1000
1010
0000
0100
,  // measure 50
0001
0100
0001
0101
0000
0010
1000
0100
1000
1010
0000
0100
,  // measure 51
0001
0010
0100
0001
0100
1000
0001
0010
0100
1000
0010
0100
,  // measure 52
1000
0000
0100
0000
0001
0000
1000
0000
0010
0000
0100
0000
0001
0000
0010
0100
1000
0100
1000
0000
0000
0000
0100
0000
,  // measure 53
0000
0000
0000
0000
0000
0000
0000
0000
0000
0000
0000
0000
0000
0000
0000
0000
0010
0000
0000
0000
0000
0000
0000
0000
0000
0000
0000
0000
0000
0000
0000
0000
0000
0000
0000
0000
0000
0000
0000
0000
0000
0000
0000
0000
0000
0000
0000
0000
2002
0000
0000
3003
0000
0000
0000
0000
0000
0000
0000
0000
0000
0000
0000
0000
0000
0000
0000
0000
0000
0000
0000
0000
0000
0000
0000
0000
0000
0000
0000
0000
0000
0000
0000
0000
0000
0000
0000
0000
0000
0000
0000
0000
0000
0000
0000
0000
0001
0000
0000
0000
0000
0000
0000
0000
0000
0000
0000
0000
0000
0000
0000
0000
0000
0000
0000
0000
0000
0000
0000
0000
0000
0000
0000
0000
0000
0000
0000
0000
0100
0000
0000
0000
0000
0000
0000
0000
0000
0000
0000
0000
0000
0000
0000
0000
0001
0000
0000
0000
0000
0000
0000
0000
0000
0000
0000
0000
0000
0000
0000
0000
0100
0000
0000
0000
0000
0000
0000
0000
0000
0000
0000
0000
0000
0000
0000
0000
0001
0000
0000
0000
0000
0000
0000
0000
0000
0000
0000
0000
0000
0000
0000
0000
,  // measure 54
0010
0000
0010
0100
0000
1000
0100
0000
0100
0010
0000
0010
,  // measure 55
0001
0010
0100
1000
0100
1000
0010
0000
1000
0001
0010
0001
,  // measure 56
1000
0000
1000
0010
0000
1000
0001
1000
0001
0100
0000
0100
,  // measure 57
0010
1000
0010
1000
0000
1000
0100
0000
0100
1000
0010
1000
,  // measure 58
0100
0000
1000
0000
0100
0000
0010
0000
0000
0000
0001
0000
0010
0000
0100
0000
0010
0000
0001
0010
0100
0010
0001
0000
,  // measure 59
1000
0100
0010
0001
0010
0001
0100
0001
1000
0100
1000
0001
,  // measure 60
0100
0001
1000
0010
1000
0010
1000
0001
0010
0001
0010
0100
,  // measure 61
1000
0001
0100
0001
0010
0100
1000
0000
0010
1000
0010
1000
,  // measure 62
0100
0000
0100
0010
0000
0001
0010
0000
0010
0100
0000
0100
,  // measure 63
1000
0100
0010
0001
0010
0001
0100
0000
0001
1000
0100
1000
,  // measure 64
0001
0000
0001
0100
0000
0001
1000
0000
1000
0010
1000
0010
,  // measure 65
0100
0001
0100
0001
0000
0001
0010
0000
0010
0001
0100
0001
,  // measure 66
0010
0000
0010
0100
0000
1000
0100
0000
0100
0010
0000
0010
,  // measure 67
0001
0010
0100
1000
0100
1000
0010
1000
0001
0010
0001
1000
,  // measure 68
0010
1000
0001
0100
0001
0100
0001
1000
0100
1000
0100
0010
,  // measure 69
0001
0000
0011
0000
1100
0000
2002
0000
0000
0000
0000
0000
,  // measure 70
0000
0000
3003
0000
;
