#TITLE:AA;
#SUBTITLE:;
#ARTIST:D.J.Amuro;
#TITLETRANSLIT:;
#SUBTITLETRANSLIT:;
#ARTISTTRANSLIT:;
#GENRE:RENAISSANCE;
#CREDIT:;
#MENUCOLOR:;
#METERTYPE:DDR;
#BANNER:AA.png;
#BACKGROUND:AA-bg.png;
#LYRICSPATH:;
#CDTITLE:./CDTITLES/Beatmania IIDX.png;
#MUSIC:AA.mp3;
#OFFSET:-0.061;
#SAMPLESTART:12.500;
#SAMPLELENGTH:15.000;
#SELECTABLE:YES;
#LISTSORT:;
#BPMS:0.000=154.010;
#STOPS:;
#BGCHANGES:;
#ATTACKS:;

//---------------dance-single - DDR-KOJI----------------
#NOTES:
     dance-single:
     DDR-KOJI:
     Challenge:
     11:
     0.933,1.000,0.064,0.021,1.000: // measure 1
0000
0000
0000
0000
,  // measure 2
0000
0000
0000
0000
,  // measure 3
0000
0000
0000
0000
,  // measure 4
1000
0001
0010
0100
1000
0001
0100
0010
,  // measure 5
1000
0100
1000
0100
1000
0100
1000
0100
,  // measure 6
0010
0001
0010
0001
0010
0001
0010
0001
,  // measure 7
1000
0010
1000
0010
1000
0010
1000
0010
,  // measure 8
0100
0001
0100
0001
0100
0001
0100
0001
,  // measure 9
1000
0100
1000
0001
1000
0000
1000
0010
,  // measure 10
0100
0000
0001
1000
0100
0000
0010
0001
,  // measure 11
1000
0000
0000
0000
1000
0000
0010
0000
0100
0000
0001
0000
0100
0010
0000
0010
,  // measure 12
1000
0010
0000
0100
0001
0100
0000
0001
0010
0001
0000
1000
0100
1000
0000
1000
,  // measure 13
0001
0100
0010
0100
0001
1000
0100
1000
,  // measure 14
0001
0000
0100
0000
0010
0000
0100
0000
0001
0000
1000
0000
0100
0000
0000
1000
,  // measure 15
0001
0000
0100
0010
,  // measure 16
1000
0000
0000
0000
0000
0000
0000
0000
0100
0010
0000
0010
0100
0000
1000
0000
,  // measure 17
0001
0100
0000
0001
0000
0000
1000
0000
0100
0000
0000
1000
0000
0000
0001
0000
,  // measure 18
1000
0100
0000
1000
0000
0001
0100
0001
1000
0001
0000
1000
0000
0000
0001
0000
,  // measure 19
0010
0100
0000
1000
0000
0010
0100
0001
0100
0010
0000
1000
0000
0000
0001
0000
,  // measure 20
0100
0010
0000
1000
0000
0100
0010
0001
0010
0100
0000
1000
0000
0000
0001
0000
,  // measure 21
1000
0010
0000
0100
0000
0000
0001
0000
1000
0000
0000
0100
0000
0000
0010
0000
,  // measure 22
0001
0100
0000
0010
0000
1000
0100
1000
0001
1000
0000
0001
0000
0000
0100
0000
,  // measure 23
0010
1000
0000
0010
0000
0100
0001
0100
0010
0100
0000
0001
0000
0000
1000
0000
,  // measure 24
0001
0010
0001
0010
0100
1000
0100
1000
0010
1000
0010
1000
0001
0100
0001
0100
,  // measure 25
0020
0000
0000
0000
0000
0000
0000
0000
0030
0000
0000
0000
1000
0100
0010
0001
,  // measure 26
2000
0000
0000
0000
0000
0000
0000
0000
3001
0000
0000
0000
0001
0000
1000
0100
,  // measure 27
1000
0000
0000
0001
0000
0000
0101
0000
0000
0000
1001
0000
0000
0000
1000
0100
,  // measure 28
1000
0000
0001
0100
0000
0010
0000
1100
,  // measure 29
0000
0000
0010
0000
0000
0000
0101
0000
0000
0000
0010
0000
0000
0000
0100
0001
,  // measure 30
1000
0000
1000
0100
0010
0001
1000
0010
,  // measure 31
0000
0100
0000
1001
0000
0000
0000
0001
,  // measure 32
0010
0001
0010
0001
1000
0010
0100
0001
1000
0100
1000
0100
0010
0001
1000
0010
,  // measure 33
0100
0001
0100
0001
1000
0100
1000
0100
0010
0001
0010
0001
1000
0010
1000
0010
,  // measure 34
0100
0001
0100
0010
1000
0100
1000
0010
0100
0001
1000
0100
0010
0001
1000
0010
,  // measure 35
0100
0001
0100
0001
1000
0100
1000
0100
0010
0001
0010
0100
1000
0010
0100
0001
,  // measure 36
1000
0100
1000
0100
0010
0001
0010
0001
1000
0001
0010
0100
1000
0100
0010
0001
,  // measure 37
1000
0010
1000
0010
0100
0001
0100
0001
1000
0100
0010
0001
0010
0100
1000
0001
,  // measure 38
0100
0010
0100
0010
1000
0001
1000
0001
0010
0100
1000
0100
0010
0001
1000
0001
,  // measure 39
0100
0010
0100
0010
1000
0001
1000
0001
0100
0010
1000
0010
0100
0001
1000
0100
,  // measure 40
0010
0001
0010
0001
1000
0010
1000
0010
0100
0001
1000
0100
0010
0001
1000
0010
,  // measure 41
0100
0001
0100
0001
1000
0100
1000
0100
0010
0001
0000
0001
1000
0000
1000
0000
,  // measure 42
0001
0100
0000
0010
0000
1000
0100
0010
0100
1000
0000
0001
0000
0100
0010
0100
,  // measure 43
0001
1000
0000
0001
0000
1000
0100
0010
0100
1000
0000
0001
0000
0010
0100
0010
,  // measure 44
0001
1000
0000
0001
0000
1000
0010
0100
0010
1000
0000
0001
0000
1000
0100
1000
,  // measure 45
0001
0010
0000
0100
0000
0010
0001
0100
0010
0100
0000
0001
0000
0010
0100
1000
,  // measure 46
0010
0100
0000
0010
0000
1000
0100
0010
0100
1000
0000
0001
0000
0100
0010
0100
,  // measure 47
0001
1000
0000
0100
0000
0010
0001
0010
0100
0010
0000
0001
0000
0100
0010
0100
,  // measure 48
0001
1000
0000
0100
0000
0010
0001
0010
0100
0010
0000
0001
0000
1000
0010
0100
,  // measure 49
0001
0010
0001
0010
0100
1000
0100
0010
0001
0100
0001
0100
0010
1000
0010
0100
,  // measure 50
0001
0010
0001
0010
0100
1000
0100
0010
0001
0100
0001
0100
0010
1000
0010
0100
,  // measure 51
0001
0010
0001
0010
0001
0100
0001
0100
0010
1000
0100
0010
0100
1000
0010
0100
,  // measure 52
0001
1000
0001
1000
0010
0100
0010
0100
0001
1000
0100
0010
0001
0010
0100
1000
,  // measure 53
0010
0100
0010
0100
0001
1000
0001
1000
0100
0010
0001
0010
0100
1000
0010
0100
,  // measure 54
0001
0010
0001
0010
0100
1000
0100
1000
0010
1000
0010
1000
0001
0100
0001
0100
,  // measure 55
0010
0100
0010
0100
0001
1000
0001
1000
0100
0010
0100
0010
0001
1000
0001
1000
,  // measure 56
0001
0010
0100
0010
0001
0100
0010
0100
0001
1000
0100
1000
0001
0100
0010
0100
,  // measure 57
0001
0010
0100
1000
0001
0100
0010
1000
0001
0010
0100
1000
0001
0100
0010
1000
,  // measure 58
1001
0000
0000
0000
;
