#TITLE:.59;
#SUBTITLE:;
#ARTIST:dj TAKA;
#TITLETRANSLIT:;
#SUBTITLETRANSLIT:;
#ARTISTTRANSLIT:;
#GENRE:CHILL OUT;
#CREDIT:;
#MENUCOLOR:;
#METERTYPE:DDR;
#BANNER:_59.png;
#BACKGROUND:_59-bg.png;
#LYRICSPATH:;
#CDTITLE:./CDTITLES/BEATMANIA IIDX.PNG;
#MUSIC:(dot)59.mp3;
#OFFSET:-0.053;
#SAMPLESTART:72.910;
#SAMPLELENGTH:15.000;
#SELECTABLE:YES;
#LISTSORT:;
#DISPLAYBPM:135.000;
#BPMS:0.000=135.000,223.000=126.760,225.000=121.620,226.000=110.090;
#STOPS:;
#BGCHANGES:;
#ATTACKS:;

//---------------dance-single - 5th Mix DB #104----------------
#NOTES:
dance-single:
5th
Mix
DB
#104: Challenge: 9: 0.671,0.716,0.136,0.000,0.543: // measure 1 0000 0000 0000 0000 , // measure 2 0000 0000 0000 0000 , // measure 3 0000 0000 0000 0000 , // measure 4 0000 0000 0000 0000 , // measure 5 1000 0100 0010 0001 0000 0000 0000 0000 , // measure 6 0001 0100 0010 1000 0000 0000 0000 0000 , // measure 7 0100 1000 0010 0100 0001 0010 0100 1000 , // measure 8 0110 1100 0101 1001 , // measure 9 0010 0100 0000 0000 1000 0000 0000 0100 0000 0010 0001 0000 0100 0000 0100 0000 , // measure 10 0010 0000 0010 0000 1000 0000 0001 0010 0000 0100 1000 0000 0010 0000 0100 0000 , // measure 11 0001 0010 1000 0001 0100 1000 0001 0010 , // measure 12 1000 0001 0100 1000 0001 0100 0010 1000 , // measure 13 0100 0010 0000 0000 0001 0000 0000 0010 0000 0100 1000 0000 0010 0000 0010 0000 , // measure 14 0100 0000 0100 0000 0001 0000 1000 0100 0000 0010 0001 0000 0100 0000 0010 0000 , // measure 15 1000 0100 0001 1000 0010 0001 1000 0100 , // measure 16 0001 1000 0010 0001 0100 0010 1000 0001 , // measure 17 0010 0100 0000 0000 1000 0001 0000 0110 0000 0000 0000 0000 0010 1000 0000 0101 , // measure 18 0000 1010 0000 0000 0011 0000 0100 0010 0000 1000 0000 0001 0000 0001 0000 0001 , // measure 19 0100 0001 0010 0000 1000 0000 0010 0001 0100 0000 1000 0000 0100 0001 0010 0000 , // measure 20 1000 0000 0010 0001 1000 0100 0010 0001 1000 0100 0010 0001 0100 0001 0010 0000 , // measure 21 0001 0000 0100 0000 0010 1000 0000 1010 0000 0000 0000 1000 0000 0100 0000 0010 , // measure 22 0001 0000 0100 0000 0100 0010 0000 0010 1000 0000 0100 0000 0010 0001 0000 0001 , // measure 23 0100 0001 0010 0100 1000 0010 0100 0001 , // measure 24 0010 1000 0010 0001 0100 0010 1000 0001 , // measure 25 1000 0100 1000 0100 0010 0001 0010 0001 0000 0001 1000 0001 0010 0000 0100 0000 , // measure 26 0001 0100 0001 0100 0010 0001 0010 0001 , // measure 27 1000 0010 1000 0010 0100 0001 0100 0001 , // measure 28 1000 0100 1000 0100 0010 0001 0010 0001 , // measure 29 0100 0001 0100 0001 1000 0010 1000 0010 0000 1000 0100 1000 0010 0000 1000 0000 , // measure 30 0100 0010 0100 0010 0001 1000 0001 1000 , // measure 31 0010 0100 0010 0100 0001 1000 0001 1000 , // measure 32 0100 0001 0100 0001 0100 1000 0100 1000 , // measure 33 0010 0000 1000 0100 1000 0000 0001 0100 0001 0000 1000 0010 1000 0001 0010 0001 , // measure 34 0010 0000 0001 0100 0001 0000 1000 0100 0000 0010 0001 0100 1000 0000 0100 0000 , // measure 35 0100 0000 0010 1000 0010 0000 0100 0001 0000 1000 0100 0010 0001 0000 0100 0000 , // measure 36 0010 0000 1000 0100 1000 0000 0001 0100 0000 0010 1000 0100 0001 0000 0100 0000 , // measure 37 0010 0000 0001 0100 0001 0000 0010 1000 0000 0010 0100 1000 0001 0000 0100 0000 , // measure 38 0010 0000 0100 0010 0100 0000 1000 0100 0000 0010 1000 0100 0001 0000 0100 0000 , // measure 39 0010 0000 0100 1000 0100 0000 0010 0001 0000 0100 0001 0100 1000 0000 0100 0000 , // measure 40 1010 0101 1100 0011 , // measure 41 0001 0000 0010 0000 0100 0000 1000 0000 0010 0100 0001 0010 0100 0010 0100 0010 , // measure 42 0100 1000 0000 0000 0010 0000 0000 0100 0000 0001 0010 0000 0100 0000 0100 0000 , // measure 43 1000 0000 1000 0000 0100 0000 0010 0001 0000 0100 1000 0000 0100 0000 0010 0000 , // measure 44 0100 1000 0100 0001 0010 0001 0100 1000 , // measure 45 0100 0001 0010 0001 1000 0010 0100 0001 , // measure 46 0010 0100 0000 0000 1000 0000 0000 0010 0000 0001 0010 0000 0100 0000 0100 0000 , // measure 47 0001 0000 1000 0000 0100 0000 0010 1000 0000 0010 0001 0000 0100 0000 0010 0000 , // measure 48 1000 1000 0100 0010 0010 0001 0100 0100 , // measure 49 0010 1000 1000 0100 0010 0001 0010 0001 , // measure 50 0100 0010 0000 0000 1000 0000 0000 0001 0000 0010 0100 0000 0001 0000 0001 0000 , // measure 51 0100 0000 1000 0000 0010 0000 0100 0001 0000 1000 0100 0000 0010 0000 0001 0000 , // measure 52 0010 0001 0100 0000 1000 0000 0100 0001 0010 0000 1000 0000 0010 0001 0100 0000 , // measure 53 1000 0000 0100 0001 1000 0010 0100 0001 1000 0010 0100 0001 0010 0001 0100 0000 , // measure 54 0001 0000 1000 0000 1001 0000 0000 0010 0000 0100 0010 0000 0100 0000 0100 0000 , // measure 55 0010 0000 0001 0000 0100 0000 0010 1000 0000 0010 0001 0000 0010 0000 0100 0000 , // measure 56 1000 0100 0001 1000 0010 0001 1000 0100 , // measure 57 0001 1000 0010 0001 0010 0100 0010 0100 ;

//---------------dance-double - 5th Mix DB #105----------------
#NOTES:
dance-double:
5th
Mix
DB
#105: Challenge: 7: 0.482,0.496,0.320,0.000,0.058: 00000000 00000000 00000000 00000000 , 00000000 00000000 00000000 00000000 , 00000000 00000000 00000000 00000000 , 00000000 00000000 00000000 00000000 , 00001000 00000000 00000000 00000000 , 00000001 00000000 00000000 00000000 , 00000010 00000010 00000100 00000100 00001000 00010000 10000000 00010000 , 01000000 00000000 00100000 10010000 , 00100000 00000000 11000000 00000000 00100000 00010000 00001100 00000000 , 00000010 00000001 00000101 00000000 00000010 00001000 00001100 00000000 , 00000001 00000100 00001000 00000100 00000001 00000100 00010000 00000100 , 00000001 00000100 00001000 00000100 00000001 00000100 00010000 00000100 , 00000001 00000000 00000101 00000000 00001000 00001100 00001100 00000000 , 00000010 00000101 00000101 00000000 00000010 00001000 00000100 00000000 , 00000010 00000010 00000100 00000100 00001000 00000001 00001000 00010000 , 00100000 00100000 01000000 01000000 10000000 00010000 00001000 00000001 , 00000001 00001000 00010000 00000000 10010000 00000000 00000000 00000000 , 10000000 00010000 00001000 00000000 00011000 00000000 10010000 00000000 , 00010000 01000000 10000000 01000000 00001000 01000000 10000000 01000000 , 00010000 00000100 00000001 00000100 00001000 00000100 00000001 00000100 , 00010000 01010000 10010000 00000000 , 10000000 01000000 00010000 00000000 10010000 00000000 01100000 00000000 , 00100000 00100000 01000000 01000000 10000000 00010000 00001000 00010000 , 00000010 00000010 00000100 00000100 00001000 00010000 10000000 00010000 , 01000000 10100000 00110000 00101000 , 00000101 00000000 00000000 00000000 , 00001000 00000000 00000000 00000000 00000000 00000000 00000000 00000001 , 00000010 00000100 00100000 01000000 10000000 01000000 10000000 01000000 , 10000000 01000000 00100000 00001000 00000100 00000010 00100000 01000000 , 10000000 00000000 00000000 00000000 , 00010000 00000000 00000000 00000000 00000000 00000000 00000000 10000000 , 01000000 00100000 00000100 00000010 00000001 00000010 00000001 00000010 , 00000001 00000010 00000100 00010000 00100000 01000000 01000000 01000000 , 01000000 00010000 00010100 00001000 , 01001000 00010000 00010100 00001000 , 01001000 00100000 01100000 00001000 , 01001000 00000000 00100000 00000000 00101000 00110000 01100000 00000000 , 10000000 01000000 00100000 00010000 00001000 00000100 00000010 00000001 , 00000100 00000010 00001000 00010000 01000000 00100000 10000000 01000000 , 00100000 00010000 00001000 00000100 00000010 00000001 00000100 00000010 , 00001000 00010000 01000000 00100000 10000000 01000000 00100000 00000000 , 00010000 00000000 00000000 00001000 00000100 00000000 00000000 00000000 00000010 00000000 00000000 00001000 00010000 00000000 00000000 00000000 , 00000010 00000000 00000000 00000001 00000100 00000000 00000000 00000000 00000010 00000000 00000000 00001000 00000100 00000000 00000000 00000000 , 00010000 00000010 00000001 00000010 00001000 00000010 00000001 00000010 , 00010000 00000010 00000001 00000010 00001000 00000010 00000001 00000010 , 00010000 00000000 00010000 00000000 01000000 00000000 00000000 00000000 10000000 00000000 00000000 00010000 01000000 00000000 00000000 00000000 , 00010000 00000000 00000000 10000000 01000000 00000000 00000000 00000000 10000000 00000000 00000000 00010000 01000000 00000000 00000000 00000000 , 00100000 00100000 01000000 00000100 00001000 00010000 00001000 00010000 , 00100000 00000010 00000100 00000100 00001000 00010000 00001000 00010000 , 00100000 00000000 00000000 10000000 01000000 00000000 00000000 00000000 00100000 00000000 00000000 00001000 00010000 00000000 00000000 00000000 , 00100000 00000000 00000000 10000000 01000000 00000000 00000000 00000000 00100000 00000000 00000000 00001000 01000000 00000000 00000000 00000000 , 00001000 00100000 10000000 00100000 00010000 00100000 10000000 00100000 , 00001000 01000000 10000000 01000000 00010000 01000000 10000000 01000000 , 00001000 00000110 00000001 00000011 , 00001000 00000000 00000000 00000000 01001000 00000000 00000000 00000000 00100000 00000000 00000000 01000000 00010000 00000000 00000000 00000000 , 00100000 00100000 01000000 01000000 10000000 00010000 10000000 00010000 , 00000010 00000010 00000100 00000100 00001000 00000001 00001000 00000001 ;
