#TITLE:Your One;
#SUBTITLE:;
#ARTIST:Dougal & Gammer;
#TITLETRANSLIT:;
#SUBTITLETRANSLIT:;
#ARTISTTRANSLIT:;
#GENRE:UK Hardcore;
#CREDIT:Thumbsy;
#MENUCOLOR:;
#METERTYPE:DDR;
#BANNER:Your One-bn.png;
#BACKGROUND:Your One-bg.png;
#LYRICSPATH:;
#CDTITLE:CDTitle v1.5.png;
#MUSIC:Your One.mp3;
#OFFSET:1.279;
#SAMPLESTART:62.240;
#SAMPLELENGTH:12.000;
#SELECTABLE:YES;
#LISTSORT:;
#BPMS:0.000=170.000;
#STOPS:;
#BGCHANGES:;
#ATTACKS:;

//---------------dance-single - ----------------
#NOTES:
     dance-single:
     :
     Beginner:
     1:
     0.105,0.138,0.000,0.000,0.000:
0000
0000
0000
0000
,
0000
0000
0000
0000
,
0000
0000
0000
0000
,
1000
0000
0000
0000
,
0001
0000
0000
0000
,
1000
0000
0000
0000
,
0000
0000
0000
0000
,
0100
0000
0000
0000
,
0000
0000
0000
0000
,
0010
0000
0000
0000
,
0001
0000
0000
0000
,
0100
0000
0000
0000
,
0000
0000
0000
0000
,
0010
0000
0000
0000
,
0000
0000
1000
0000
,
0001
0000
0000
0000
,
0000
0000
1000
0000
,
0010
0000
0000
0000
,
0000
0000
0100
0000
,
0001
0000
0000
0000
,
0000
0000
0001
0000
,
0010
0000
0000
0000
,
0000
0000
1000
0000
,
1000
0000
0000
0000
,
0000
0000
0010
0000
,
0001
0000
0001
0000
,
0000
0000
1000
0000
,
0100
0000
0000
0000
,
0000
0000
0010
0000
,
0001
0000
0000
0000
,
0000
0000
0001
0000
,
1000
0000
0000
0000
,
0000
0000
1000
0000
,
0010
0000
0000
0000
,
0010
0000
0000
0000
,
0100
0000
0100
0000
,
0100
0000
0000
0000
,
1000
0000
0000
0000
,
0001
0000
0001
0000
,
0010
0000
0000
0000
,
0100
0000
0100
0000
,
1000
0000
0000
0000
,
0001
0000
0001
0000
,
0100
0000
0000
0000
,
0010
0000
0000
0000
,
0010
0000
0000
0000
,
0100
0000
0010
0000
,
0100
0000
0000
0000
,
0001
0000
0000
0000
,
1000
0000
0000
0000
,
0001
0000
0001
0000
,
0010
0000
0000
0000
,
0100
0000
0000
0000
,
0010
0000
0000
0000
,
0010
0000
0000
0000
,
0100
0000
0100
0000
,
1000
0000
0000
0000
,
1000
0000
0000
0000
,
0001
0000
0000
0000
,
0100
0000
0010
0000
,
0000
0000
0000
0000
,
0001
0000
0000
0000
,
1000
0000
0000
0000
,
0001
0000
1000
0000
,
0001
0000
0000
0000
;

//---------------dance-single - ----------------
#NOTES:
     dance-single:
     :
     Easy:
     4:
     0.269,0.348,0.043,0.118,0.000: // measure 1
0000
0000
0000
0000
,  // measure 2
0000
0000
0000
0000
,  // measure 3
0000
0000
0000
0000
,  // measure 4
1000
0000
1000
0000
,  // measure 5
0001
0000
0000
0000
,  // measure 6
2000
0000
0000
0000
,  // measure 7
0000
0000
0000
0000
,  // measure 8
0002
0000
0000
0000
,  // measure 9
0000
0000
0000
3003
,  // measure 10
1000
0100
0010
0000
,  // measure 11
0100
0000
0100
0000
,  // measure 12
2000
0000
0000
0000
,  // measure 13
0000
0000
0000
3000
,  // measure 14
0001
0001
0100
0000
,  // measure 15
0000
0010
0010
0000
,  // measure 16
1000
0001
1000
0000
,  // measure 17
0000
0100
0100
0000
,  // measure 18
0010
0001
0010
0000
,  // measure 19
0010
0000
0010
0000
,  // measure 20
0100
1000
0100
1000
,  // measure 21
0000
0001
0001
0000
,  // measure 22
1000
0000
0001
0000
,  // measure 23
0000
1000
0010
0100
,  // measure 24
0100
0000
0001
0000
,  // measure 25
0000
1000
0100
0010
,  // measure 26
0010
0000
0010
0000
,  // measure 27
0001
0000
0001
1000
,  // measure 28
0010
0000
0010
0000
,  // measure 29
0000
0100
0010
0100
,  // measure 30
0001
0010
0001
0010
,  // measure 31
0000
0100
0100
0000
,  // measure 32
1000
0010
1000
0010
,  // measure 33
0000
0100
0100
0000
,  // measure 34
0001
0000
0001
0000
,  // measure 35
2000
3000
2000
3000
,  // measure 36
1000
0100
0010
0001
,  // measure 37
0010
0100
1000
0000
,  // measure 38
0001
0100
0001
0100
,  // measure 39
0002
0003
0002
0003
,  // measure 40
1000
0100
1000
0100
,  // measure 41
2000
3000
2000
3000
,  // measure 42
0010
0100
0010
0100
,  // measure 43
0020
0030
0020
0030
,  // measure 44
0100
0001
0100
0001
,  // measure 45
1001
0000
0000
0000
,  // measure 46
1000
0001
0010
0100
,  // measure 47
0000
0010
0010
0000
,  // measure 48
0001
1000
0010
0100
,  // measure 49
0000
0100
0010
0000
,  // measure 50
1000
1000
0001
0000
,  // measure 51
0001
0000
0001
0001
,  // measure 52
1000
0100
0010
0010
,  // measure 53
0000
0010
0100
1000
,  // measure 54
0001
0100
0010
0010
,  // measure 55
0000
0010
0100
0100
,  // measure 56
0001
1000
0100
0010
,  // measure 57
0000
0010
0010
0000
,  // measure 58
0001
0100
0001
0100
,  // measure 59
1000
0100
0001
0001
,  // measure 60
1000
0000
0001
0001
,  // measure 61
0000
0100
0010
1000
,  // measure 62
1001
0000
1000
0000
,  // measure 63
1100
0000
1000
0000
,  // measure 64
0101
0000
0001
0000
,  // measure 65
0001
0010
0100
1000
;

//---------------dance-single - ----------------
#NOTES:
     dance-single:
     :
     Medium:
     6:
     0.407,0.420,0.075,0.032,0.000:
0000
0000
0000
0000
,
0000
0000
0000
0000
,
0000
0000
0000
0000
,
1100
0000
1000
0000
,
0001
0000
0000
0001
0000
0000
0001
0000
,
1000
0100
0010
0100
,
1000
0000
0000
0001
0000
0100
0000
0000
,
0020
0000
0000
0000
,
0000
0000
0000
0030
,
1000
0001
0010
0001
,
1000
0000
0000
0010
0000
0100
0000
0000
,
0010
0010
0010
0010
,
0010
0010
0010
0010
,
1000
0000
0001
0000
0010
0000
0000
0100
,
0000
0100
0010
0001
,
1000
0001
1000
0000
0010
0000
0000
0100
,
0000
0010
0010
0100
,
0001
0000
1000
0100
1000
0000
0000
0000
,
0001
0000
0010
0010
,
0100
1000
0100
0000
1000
0000
0001
0000
,
0000
0100
0010
0010
,
1000
0001
1000
0000
0010
0000
0100
0001
,
0000
0010
0010
0100
,
1000
0000
0001
0000
0100
0000
0000
0010
,
0000
0100
0100
0001
,
1000
0000
0100
0010
0100
0000
1000
0000
,
0100
0001
0000
0001
0100
0000
1000
0000
,
0010
0100
0010
0000
0100
0000
0001
0000
,
0000
0001
0010
0100
,
1000
0100
1000
0000
0001
0000
0100
0010
,
0000
0010
0100
0000
0001
0000
1000
0000
,
0001
0010
0001
0000
1000
0000
0100
0010
,
0000
0010
0100
0000
1000
0000
0001
0000
,
1000
1000
0000
0000
0001
0001
0000
0000
,
0100
0100
0000
0000
0010
0010
0000
0000
,
1000
0010
1000
0000
0001
0100
0001
0000
,
1100
0101
1100
0000
,
1000
0100
0010
0100
,
1000
0001
0000
0001
0000
0001
0000
0001
,
0100
0010
1000
0100
,
0010
0100
0000
0100
0000
0100
0000
0100
,
0010
0001
0100
0010
,
1000
0010
0000
0010
0000
0010
0000
0010
,
0100
0001
1000
0100
,
1000
0100
0000
0100
0000
0100
0000
0000
,
1000
0001
0100
0000
0100
0000
0001
0010
,
0000
0010
0001
0000
0100
0000
0010
0000
,
1000
0100
1000
0000
1000
0000
0001
0010
,
0000
0010
0001
0000
0100
0000
0100
0000
,
0010
0000
0100
0010
0100
0000
0001
0000
,
1000
0100
0000
0001
0100
0000
1000
0000
,
0001
0100
0001
0000
0001
0000
1000
0100
,
0000
0100
1000
0000
0010
0000
0010
0000
,
0100
0001
0100
0000
0001
0000
1000
0100
,
0000
0010
0100
0000
1000
0000
0100
0000
,
0010
0001
0010
0000
0001
0000
0100
0010
,
0000
0010
0100
0000
0001
0000
1000
0000
,
0100
0000
0010
0100
0010
0000
0010
0000
,
0100
0001
0000
0001
0100
0000
0100
0000
,
0100
1000
0100
0000
0010
0000
0001
0100
,
0000
0100
0010
0000
0100
0000
0001
0000
,
1001
0000
1000
0000
,
1100
0000
0001
0000
,
0101
0000
1000
0000
,
1000
0001
1000
0000
0020
0000
0230
0000
,
0300
0000
0000
0000
;

//---------------dance-single - ----------------
#NOTES:
     dance-single:
     :
     Hard:
     8:
     0.621,0.699,0.204,0.420,0.048:
0000
0000
0000
0000
,
0000
0000
0000
0000
,
0000
0000
0000
0000
,
1100
0000
0001
0000
,
0100
0000
0000
0100
0000
0000
0100
0000
,
0100
0001
0010
0100
,
1000
0000
0000
0001
0000
0100
0000
0000
,
0200
0000
0000
0000
,
0000
0000
0000
0300
,
0001
1000
0010
1000
,
0001
0010
0000
0100
0000
0010
0000
0100
,
1000
0001
1000
0001
1000
0001
1000
0001
,
1000
0001
1000
0001
1000
0001
1000
0001
,
1000
0100
0010
0100
0010
0001
0100
0010
,
0000
0010
0100
0001
2000
0000
3200
0000
,
0310
0001
0010
0000
0010
0100
1000
0100
,
0000
0100
0010
0100
2000
0000
3002
0000
,
0103
0000
0010
0100
0010
0000
1000
0100
,
0001
0100
0000
1000
0010
1000
0100
0000
,
0010
0001
0100
0000
0100
0010
0100
0001
,
0000
0001
1000
0100
0020
0000
0230
0000
,
1300
0100
0001
0100
1000
0010
1000
0100
,
0000
1000
0001
0100
2000
0000
3200
0000
,
0301
0010
0100
0000
1000
0010
0001
0010
,
0000
0100
0001
0010
0200
0000
2300
0000
,
3001
0000
1000
0001
1000
0000
0001
0010
,
1000
0010
0000
0001
0100
0010
0100
0000
,
0100
0001
0100
0000
0001
1000
0100
0010
,
0000
0010
0100
1000
0002
0000
0203
0000
,
0301
0010
0100
1000
0001
0100
0010
1000
,
0000
1000
0010
0100
0002
0000
0013
0100
,
1000
0100
2000
0000
3001
0100
0010
1000
,
0000
1000
0010
0100
0002
0000
0103
0010
,
0100
0000
0001
0000
0000
1000
0000
0000
0100
0000
1000
0000
0000
0001
0000
0000
,
1000
0000
0100
0010
0000
0100
0000
1000
0001
0000
0100
0010
0000
0100
0000
0001
,
1000
0100
0010
0001
1000
0010
0100
0001
,
1010
0101
1100
0000
,
2100
3100
0102
0103
,
0100
0001
1000
0100
1000
0001
0100
0001
,
2010
3010
0012
0013
,
0010
0100
1000
0100
0010
0100
1000
0001
,
1001
0110
1001
0110
,
1000
0100
0001
0100
1000
0100
0001
0100
,
1100
0110
0011
0101
,
0001
0100
1000
0100
0000
0100
0000
0000
,
0001
0010
0100
1000
0001
0100
1000
0100
,
0000
0100
0001
0010
0200
0000
2300
0000
,
3001
0100
0010
0000
0010
0100
0001
1000
,
0000
0001
0010
0100
2000
0000
3002
0000
,
2003
0000
3010
0100
0001
0000
0001
0010
,
1000
0010
0000
0100
1000
0001
0100
0000
,
0010
1000
0001
0000
0001
0010
1000
0010
,
0000
0010
0100
1000
0002
0000
2003
0000
,
3010
0100
0010
1000
0100
0010
0100
1000
,
0000
0001
0100
0010
0200
0000
0302
0000
,
1003
0100
2000
0000
3001
0010
1000
0010
,
0000
0100
1000
0001
0200
0000
0302
0000
,
0103
0000
1000
0100
0001
0000
1000
0100
,
0001
0100
0000
0100
0010
1000
0020
0000
,
0031
0100
0010
0000
0010
0100
0001
1000
,
0000
1000
0100
0010
0002
0000
1003
0000
,
0102
0000
1000
0003
,
2010
0000
0000
3000
0000
0000
0000
0001
0100
0000
0000
0000
0000
0000
0000
0000
,
0120
0000
0001
0030
,
1000
0001
0100
1000
0200
0000
0302
0000
,
0003
0000
0000
0000
;
