#TITLE:Through The Darkness 2010;
#SUBTITLE:(Dougal & Gammer Remix);
#ARTIST:Mickey Skedale feat. Jenna;
#TITLETRANSLIT:;
#SUBTITLETRANSLIT:;
#ARTISTTRANSLIT:;
#GENRE:UK Hardcore;
#CREDIT:Thumbsy;
#MENUCOLOR:;
#METERTYPE:DDR;
#BANNER:Through The Darkness 2010 (Dougal & Gammer Remix)-bn.png;
#BACKGROUND:Through The Darkness 2010 (Dougal & Gammer Remix)-bg.png;
#LYRICSPATH:;
#CDTITLE:CDTitle.png;
#MUSIC:Through The Darkness 2010 (Dougal & Gammer Remix).mp3;
#OFFSET:-0.032;
#SAMPLESTART:45.180;
#SAMPLELENGTH:12.000;
#SELECTABLE:YES;
#LISTSORT:;
#BPMS:0.000=170.005;
#STOPS:68.000=1.061
,69.000=1.060
,70.000=1.060
,71.000=1.056
,72.000=1.062
,73.000=1.057
,74.000=1.060
,75.000=1.060
;
#BGCHANGES:0.000=Through The Darkness 2010 (Dougal & Gammer Remix)-bg.png=1.000=0=0=1,
99999=-nosongbg-=1.000=0=0=0 // don't automatically add -songbackground-
;
#ATTACKS:;

//---------------dance-single - ----------------
#NOTES:
     dance-single:
     :
     Beginner:
     2:
     0.120,0.184,0.052,0.031,0.000: // measure 1
0000
0000
0000
0000
,  // measure 2
1001
0000
0000
0000
,  // measure 3
0000
0000
0000
0000
,  // measure 4
1000
0000
0000
0000
,  // measure 5
0001
0000
0000
0000
,  // measure 6
1000
0000
0000
0000
,  // measure 7
0100
0000
0000
0000
,  // measure 8
0001
0000
0000
0000
,  // measure 9
0010
0000
0000
0000
,  // measure 10
2000
0000
3000
0000
,  // measure 11
0001
0000
0000
0000
,  // measure 12
0100
0000
0000
0000
,  // measure 13
0010
0000
0000
0000
,  // measure 14
1000
0000
0000
0000
,  // measure 15
0001
0000
0000
0000
,  // measure 16
1000
0000
0001
0000
,  // measure 17
0100
0000
0000
0000
,  // measure 18
2002
0000
0000
0000
,  // measure 19
0000
0000
0000
3003
,  // measure 20
1000
0000
0000
0000
,  // measure 21
0001
0000
0000
0000
,  // measure 22
0010
0000
0000
0000
,  // measure 23
0100
0000
0000
0000
,  // measure 24
0001
0000
0100
0000
,  // measure 25
1000
0000
0100
0000
,  // measure 26
0001
0000
1000
0000
,  // measure 27
1001
0000
0000
0000
,  // measure 28
1000
0000
0000
0000
,  // measure 29
0001
0000
0000
0000
,  // measure 30
0010
0000
1000
0000
,  // measure 31
0001
0000
0000
0000
,  // measure 32
1000
0000
0000
0000
,  // measure 33
0001
0000
0000
0000
,  // measure 34
0001
0000
1000
0000
,  // measure 35
0010
0000
0100
0000
,  // measure 36
0001
0000
0000
1000
,  // measure 37
0000
0001
0000
0100
,  // measure 38
0000
0001
0000
1000
,  // measure 39
0000
0010
0000
1000
,  // measure 40
0000
0000
0001
0000
,  // measure 41
1000
0000
0000
0000
,  // measure 42
0001
0000
0000
0000
,  // measure 43
1000
0000
0000
0000
,  // measure 44
1001
0000
0000
0000
,  // measure 45
1000
0000
0000
0000
,  // measure 46
0001
0000
0010
0000
,  // measure 47
1000
0000
0000
0000
,  // measure 48
0001
0000
0000
0000
,  // measure 49
0100
0000
0000
0000
,  // measure 50
0001
0000
0010
0000
,  // measure 51
0001
0000
0000
0000
,  // measure 52
0000
0000
0100
0000
,  // measure 53
1000
0000
0000
0000
,  // measure 54
0001
0000
0100
0000
,  // measure 55
0001
0000
0000
0000
,  // measure 56
1000
0000
0010
0000
,  // measure 57
1000
0000
0000
0000
,  // measure 58
0001
0000
0010
0000
,  // measure 59
0001
0000
0000
0000
,  // measure 60
1001
0000
0000
0000
;

//---------------dance-single - ----------------
#NOTES:
     dance-single:
     :
     Easy:
     4:
     0.278,0.307,0.042,0.083,0.000:
0000
0000
0000
0000
,
1001
0000
0000
0000
,
1000
0000
0000
0000
,
0010
0000
0010
0000
,
1000
0000
0000
0000
,
0001
0010
0100
0000
,
0010
0100
1000
0000
,
0001
0100
0010
0000
,
0100
0010
1000
0000
,
0001
1000
0000
1000
,
0001
1000
0000
0010
,
0100
0001
0000
0010
,
0100
1000
0000
1000
,
0200
0000
0000
0300
,
0010
0100
0000
0000
,
1000
0000
0100
0000
,
0010
0001
0100
0000
,
2000
3000
0002
0003
,
2000
3000
0002
0003
,
1000
0000
1000
0000
,
0100
0000
0100
0000
,
0010
0010
0010
0010
,
0001
0001
0001
0001
,
1000
0100
0001
0100
,
0010
1000
0001
0010
,
0001
0010
0100
1000
,
2002
0000
0000
3003
,
1000
0001
0100
0001
,
1000
0100
0010
0000
,
0001
0100
0001
0010
,
1000
0001
0100
0000
,
0001
0010
0100
0010
,
0001
1000
0001
0000
,
1000
0100
1000
0100
,
0010
0001
0010
0000
,
0000
1001
0100
0010
,
1000
0001
0100
0010
,
1000
0001
0010
0100
,
0010
0001
0010
0100
,
1000
0001
0100
0010
,
1000
0001
0100
0001
,
1000
0100
1000
0010
,
0200
0000
0000
0300
,
1000
0100
0001
0000
,
0001
0100
1000
0000
,
1000
0100
0001
0010
,
1000
0100
0001
0000
,
1000
0010
0001
0000
,
0001
0010
1000
0000
,
1000
0010
0001
0100
,
1000
0100
0010
0000
,
0000
1000
0100
0010
,
0100
1000
0001
0010
,
0100
0010
0001
0100
,
0010
1000
0100
0000
,
1000
1000
0001
0001
,
0100
0100
0010
0010
,
1000
0100
0010
0001
,
0000
0000
0000
0000
,
1001
0000
0000
0000
;

//---------------dance-single - ----------------
#NOTES:
     dance-single:
     :
     Medium:
     6:
     0.348,0.399,0.146,0.146,0.021:
0000
0000
0000
0000
,
2002
0000
0000
0000
0003
3000
0001
1000
,
0000
0001
0000
0000
0000
0000
0000
0000
,
1000
0000
0000
0100
0000
0000
0010
0001
,
0000
0001
0000
0000
0000
0000
0100
0001
,
0000
1000
0000
0010
0000
1000
0000
0001
,
0000
1000
0000
0100
0000
0000
0000
2000
,
0000
0010
0000
0002
0000
3003
0000
0100
,
0000
0010
0000
1000
0000
1000
0100
0000
,
2002
0000
0000
3003
0000
0001
0000
1000
,
0000
0001
0000
0000
0000
0000
1000
0100
,
0000
0000
1000
0001
0000
1000
0000
0010
,
0000
0000
1000
0001
0000
0100
0000
0000
,
2200
0000
0000
3300
0000
0000
0010
0100
,
0000
0002
0000
0000
0000
0003
0000
1000
,
0000
0001
0000
0100
0000
0010
0000
0100
,
0000
0001
0000
2200
0000
0000
3300
0000
,
1000
0100
0010
0101
,
0100
0010
1000
0011
,
0010
0000
0001
0000
,
1000
0000
0100
0000
,
0010
0001
1000
0010
,
0100
0001
0010
0100
,
1000
0100
1000
0100
0010
0001
0010
0001
,
1000
0010
1000
0010
0100
0001
0100
0001
,
2000
0000
0000
3000
,
1001
0000
0100
0010
0000
0001
0000
0000
,
1000
0000
0000
0100
0000
0000
0010
0000
,
0000
0000
0001
0000
0000
0000
0000
0000
0001
0000
0000
0100
0000
0000
0010
0000
,
1000
0000
0000
0010
0000
0000
0100
0000
,
0000
0001
0000
0000
1000
0000
0100
0000
,
1000
0000
0000
0100
0000
0000
0001
0000
,
0000
0000
0100
0000
0000
0000
0000
0000
1000
0000
0000
0001
0000
0000
0100
0000
,
1000
0000
0000
0100
0000
0000
0001
0000
,
1000
0000
0000
0100
0000
0000
0000
0000
0001
0000
0000
0100
0000
0000
0000
0000
,
0000
0000
1000
0100
0010
0100
1000
0001
,
0100
0010
1000
0001
,
1000
0000
0000
0010
0000
0000
0001
0000
,
0000
1000
0000
0000
0100
0000
0001
0000
,
1100
0010
0001
0100
,
1001
0000
0010
0000
1000
0000
0000
1000
,
0000
0100
0000
0100
0000
1000
0000
0010
,
0000
0100
0000
0002
0000
0000
0003
0000
,
1000
0000
0100
0000
0001
0000
0000
0001
,
0000
0100
0000
1000
0000
0001
0000
0000
,
1000
0000
0100
0000
0010
0000
0000
0001
,
0000
0010
0000
0100
0000
1000
0000
1000
,
0001
0000
0010
0000
1000
0000
1000
0100
,
0000
1000
0000
0010
0000
0000
0000
1000
,
0000
0001
0000
0100
0000
0010
0000
1000
,
0000
0001
0000
0200
0000
0000
0000
0000
,
0300
0000
0110
0000
0000
0000
0000
1000
,
0000
0010
0000
0100
0000
0001
0000
1000
,
0001
0000
1001
0000
1000
0000
0100
0010
,
0000
0001
0000
0100
0000
0010
0000
1000
,
0000
0000
1001
0000
0100
0010
0100
0001
,
0000
1000
0000
0100
0000
0001
0000
0000
,
1001
0000
0100
0000
0010
1000
0001
0010
,
0000
0000
0000
0000
,
1001
0000
0000
0000
;

//---------------dance-single - ----------------
#NOTES:
     dance-single:
     :
     Hard:
     7:
     0.482,0.553,0.375,0.208,0.047:
0000
0000
0000
0000
,
2200
0000
0000
0000
0000
3300
0000
0011
,
0000
2020
0000
0000
0000
3030
0000
1000
,
0200
0300
0000
0020
0030
0000
0001
0010
,
0000
0100
0000
0000
0000
0000
1000
0100
,
0000
0001
0000
0100
0000
0010
0000
0001
,
0000
1000
0000
0100
0000
0000
0000
2000
,
0000
0010
0000
0010
0000
3100
0000
0002
,
0000
1000
0000
0100
0000
0103
0100
0000
,
2002
0000
0000
3003
0000
1001
0000
2200
,
0000
0000
0000
3300
0000
0001
0000
0100
,
0000
0000
0010
1000
0000
0001
0000
1000
,
0000
0000
0001
0010
0000
0010
0000
0000
,
2002
0000
0000
0000
3003
0000
1000
0001
,
0000
0220
0000
0000
0000
0330
0000
1100
,
0000
0010
0000
0001
0000
0100
0000
1010
,
0000
0001
0000
0200
0000
0000
0300
0000
,
0011
1100
1001
0110
,
1010
0011
0110
1001
,
1001
1000
1001
0001
,
1001
0100
0110
0010
,
0001
0100
0010
1000
,
0001
0010
0100
0010
,
0001
0010
0001
1000
0001
0100
1000
0100
,
0010
0100
0001
0100
0001
1000
0100
0010
,
1000
0000
0001
0000
0100
0000
1000
0000
0010
0000
1000
0001
1000
0000
0010
0000
,
1000
0000
0000
0001
0000
0000
0010
0000
0001
0000
0000
1000
0000
0000
0001
0000
,
1000
0000
0100
0010
0000
0001
1000
0000
,
0010
0000
0100
0000
0000
0000
0001
0000
1000
0000
0000
0100
0000
0000
1000
0000
,
0001
0000
0100
1000
0000
0100
0001
0000
,
1000
0001
0000
0000
1100
0000
0101
0000
,
1000
0001
0100
0001
0000
1000
0100
0000
,
0010
0000
0100
0000
1000
0000
0001
0000
0010
0000
0000
0001
0000
0000
1000
0000
,
0000
1001
0000
0100
0000
0101
0000
1000
,
0000
0000
0101
0000
0000
0000
0100
0000
0001
0000
0010
0100
0010
0000
0100
0000
,
1000
0000
0000
1100
0000
0000
0011
0000
,
0000
0000
1001
0000
0000
0000
0000
0000
1000
0000
0000
0001
0000
0000
0010
0000
,
1000
0000
0010
0001
0000
1000
0100
0000
,
0010
0001
0000
0001
1100
0000
0011
0000
,
1100
0010
0001
0100
,
1100
0100
0010
0001
,
1000
0100
0010
0001
1000
0100
0010
0001
,
2002
0000
0000
3003
,
1000
0000
0010
0000
0001
0100
0000
0010
,
0000
1000
0000
0100
0000
0001
0000
1000
,
0010
0000
1000
0000
0001
0010
0100
0010
,
0000
0001
0000
1000
0000
0100
0000
0001
,
1000
0000
0100
0000
0001
0100
0000
0010
,
0000
1000
0000
0001
0000
0100
0000
0010
,
0001
0000
0100
0000
0010
0100
1000
0100
,
0000
0000
0001
0000
0000
0000
0100
0000
0000
0000
0001
1000
0001
0000
1000
0000
,
0000
0000
1000
0000
0010
0001
1000
0001
,
0010
0001
0000
1000
0000
0001
0000
1000
,
0100
0000
1000
0000
1000
0001
1000
0010
,
1000
0001
0000
0100
0000
0010
0000
1000
,
0001
1000
0100
0010
0001
0010
0100
0000
,
0001
0000
1000
0000
0010
0000
0100
0000
0001
0000
0100
0000
0010
0000
0000
1000
,
0001
0100
1000
0100
0001
1000
0100
0001
,
0200
0000
0000
0300
,
1001
0000
0000
0000
;
