#TITLE:Still Shy VIP (Assertive Remix);
#SUBTITLE:;
#ARTIST:Assertive Fluttershy fixes ArtAttack (ft. Metajoker);
#TITLETRANSLIT:;
#SUBTITLETRANSLIT:;
#ARTISTTRANSLIT:;
#GENRE:UK Hardcore;
#CREDIT:Thumbsy;
#MENUCOLOR:;
#METERTYPE:DDR;
#BANNER:Still Shy VIP (Assertive Remix).png;
#BACKGROUND:Still Shy VIP (Assertive Remix)-bg.png;
#LYRICSPATH:;
#CDTITLE:CDTitle v1.5.png;
#MUSIC:Still Shy VIP (Assertive Remix).mp3;
#OFFSET:-0.097;
#SAMPLESTART:50.754;
#SAMPLELENGTH:21.337;
#SELECTABLE:YES;
#LISTSORT:;
#DISPLAYBPM:180.000;
#BPMS:0.000=180.000,153.000=360.000,154.000=180.000,156.750=360.000,158.000=180.000,188.750=360.000,190.000=180.000;
#STOPS:153.000=0.019
,153.125=0.020
,153.250=0.019
,153.375=0.020
,153.500=0.019
,153.625=0.020
,153.750=0.019
,153.875=0.020
,156.750=0.044
,157.000=0.043
,157.250=0.044
,157.500=0.043
,157.750=0.044
,188.750=0.042
,189.000=0.041
,189.250=0.042
,189.500=0.041
,189.750=0.042
;
#BGCHANGES:;
#ATTACKS:;

//---------------dance-single - ----------------
#NOTES:
     dance-single:
     :
     Beginner:
     2:
     0.149,0.282,0.044,0.026,0.000:
0000
0000
0000
0000
,
0000
0000
0000
0000
,
0000
0000
0000
0000
,
0000
0000
0000
0000
,
0000
0000
0000
0000
,
0000
0000
0000
0000
,
0000
0000
0000
0000
,
0000
0000
0000
0000
,
1000
0000
0000
0000
,
0000
0000
0000
0000
,
0000
0010
0000
0000
,
0000
0000
0000
0000
,
0000
1000
0000
0000
,
0000
0000
0000
0000
,
0000
0001
0000
0000
0000
0000
0000
0000
,
0000
0000
0000
0000
,
1000
0000
1000
0000
,
1000
0000
1000
0000
,
0001
0000
0001
0000
,
0001
0000
0000
0000
,
0010
0000
0010
0000
,
0010
0000
0010
0000
,
0100
0000
0100
0000
,
0100
0000
0000
0000
,
1000
0000
0000
0000
,
0001
0000
0001
0000
,
0100
0000
0000
0000
,
0001
0000
0000
0000
,
1000
0000
0000
0000
,
0001
0000
0000
0000
,
0200
0000
0000
0000
,
0300
0000
0001
0000
,
1001
0000
0000
0000
,
1000
0000
0000
0000
,
1001
0000
0000
0000
,
0010
0000
0100
0000
,
1001
0000
0001
0000
,
1001
0000
0000
0000
,
1000
0000
0001
0000
,
1000
0000
0001
0000
,
1000
1000
1000
0000
,
0100
0000
0010
0000
,
0001
0001
0001
0000
,
0100
0000
0100
0000
,
0001
0000
0000
0000
,
1000
0000
1000
0000
,
0100
0000
0000
0000
,
1000
0000
0001
0000
,
1000
1000
1000
1000
,
0100
0000
0100
0000
,
0010
0010
0010
0010
,
0001
0000
0100
0100
,
0100
0000
0001
0001
,
0001
0000
1000
1000
,
1000
0000
1000
0000
,
0100
0000
0010
0000
,
0001
0001
1000
0001
,
0001
0000
0100
0000
,
0010
0010
0100
0010
,
0010
0000
0010
0000
,
1000
0000
1000
0000
,
0001
0000
0001
0000
,
1000
0000
0100
0000
,
0010
0000
0001
0000
,
1001
0000
0000
0000
,
1000
0000
0000
0000
,
0000
0001
0000
0000
,
0000
0000
0000
0000
,
0000
0001
0000
0000
,
0000
0000
0000
0000
,
0000
1000
0000
0000
0000
0000
0000
0000
,
0000
0000
0000
0000
,
0100
0000
0000
0000
,
0010
0000
0000
0000
,
0000
0010
0000
0000
,
0000
0000
0000
0000
,
2000
0000
0000
0000
,
0000
3000
0001
0000
,
0002
0000
0000
0000
,
0000
0000
0000
0000
,
1003
0000
0000
0000
;

//---------------dance-single - ----------------
#NOTES:
     dance-single:
     :
     Easy:
     4:
     0.277,0.423,0.071,0.141,0.000:
0000
0000
0000
0000
,
0000
0000
0000
0000
,
0000
0000
0000
0000
,
0000
0000
0000
0000
,
0000
0000
0000
0000
,
0000
0000
0000
0000
,
0000
0000
0000
0000
,
0000
0000
0000
0000
,
1000
0000
0000
0000
,
0001
0000
0000
0000
,
0010
0001
0000
0000
,
0000
0000
0000
0000
,
1000
0000
0010
0000
0000
0000
0000
1000
,
0000
1000
0000
0000
0000
0000
0000
0001
,
0000
0001
0000
0000
0000
0000
0000
0000
,
0000
0000
0000
0000
,
1000
0100
1000
1000
,
0100
0010
0010
0010
,
0001
0010
0001
0001
,
0100
0001
1000
0000
,
0100
1000
0100
0100
,
0010
0001
0010
0010
,
0001
0100
0001
0001
,
1000
0000
1000
0000
,
1001
0000
0001
0000
,
0100
0001
0100
0100
,
0002
0000
1000
0003
,
1000
0000
1000
0100
,
0010
0010
0001
0001
,
1000
1000
0010
0010
,
0200
0000
0010
0300
,
0010
0000
0010
1000
,
1001
0001
1000
0010
,
1000
1000
0001
0010
,
0011
0000
0001
0000
,
1000
0000
1000
0100
,
1100
1000
0001
0100
,
1001
0010
0100
1000
,
1001
0000
1001
0000
,
0002
0003
2000
3000
,
0001
0010
0100
0010
,
0000
0010
0000
0010
,
0001
1000
0010
0100
,
0000
0100
0000
0100
,
0002
1000
1000
1003
,
2000
0001
0001
3001
,
0001
0010
0100
1000
,
1001
0000
2000
3000
,
0001
0010
0001
0100
,
0001
1000
0010
1000
,
0100
1000
0100
0010
,
0100
1000
1000
0001
,
0001
0100
0010
0100
,
0001
1000
1000
0100
,
0010
0100
1000
1000
,
0001
1000
1000
0000
,
1000
0010
1000
0100
,
1000
0001
0010
0001
,
0100
0001
1000
0100
,
0010
0100
1000
1000
,
0001
0100
0010
0010
,
0100
0001
0001
0010
,
0200
1300
2000
3100
,
0200
0310
0002
0000
,
1003
0000
0000
0000
,
1000
0000
0000
0000
,
0001
0100
0000
0000
,
0000
0000
0000
0000
,
0001
0000
1000
0000
0000
0000
0000
1000
,
0000
0100
0000
0000
0000
0000
0000
0100
,
0000
1000
0000
0000
0000
0000
0000
0000
,
0000
0000
0000
0000
,
0001
0000
0000
0000
,
1000
0000
0000
0000
,
1000
0100
0000
0000
,
0000
0000
0020
0000
,
0032
0000
0000
0000
,
2003
0000
3020
0000
,
0230
0000
0000
0000
,
0000
0000
0000
0000
,
0301
0000
0000
0000
;

//---------------dance-single - ----------------
#NOTES:
     dance-single:
     :
     Medium:
     5:
     0.312,0.423,0.088,0.159,0.035:
0000
0000
0000
0000
,
0000
0000
0000
0000
,
0000
0000
0000
0000
,
0000
0000
0000
0000
,
0000
0000
0000
0000
,
0000
0000
0000
0000
,
0000
0000
0000
0000
,
0000
0000
0000
0000
,
1000
0000
0000
0000
0000
0000
0000
0001
,
0000
0001
0000
0000
0000
0000
0000
0000
,
1000
0010
0000
0000
,
0000
0000
0000
0000
,
0100
0000
0001
0000
0000
0000
0000
0001
,
0000
0010
0000
0000
0000
0000
0000
0100
,
0000
1000
0000
0000
0000
0000
0000
0000
,
0000
0000
0000
0000
,
1000
0010
0010
0100
,
0001
0001
0010
0100
,
0010
0010
0001
1000
,
0100
0100
1000
0001
,
0100
0100
0010
0100
,
0010
0010
1000
0100
,
1000
1000
0001
0100
,
0001
0001
0001
0000
,
1001
1000
0100
0010
,
0100
1000
0001
0100
,
0002
0000
1000
0000
,
1003
0000
1000
0100
,
0020
0001
0001
0031
,
0200
0010
0010
0310
,
1000
0000
1000
0000
,
0010
0010
0001
0001
,
1001
1000
0010
1000
,
1000
0001
0100
0001
,
0012
1000
0010
1000
,
0100
1003
1000
0100
,
0011
0001
0010
0100
,
1100
1000
0100
0010
,
0011
0000
1100
0000
,
0020
0000
0230
0000
,
0301
0000
0010
0000
0100
0000
1000
0001
,
0000
0001
0000
0001
0000
0001
1000
0000
,
1000
0000
0010
0000
0100
0000
0001
1000
,
0000
1000
0000
1000
0000
1000
0100
0000
,
0020
0001
0100
0031
,
0002
1000
0100
1003
,
2000
0001
0010
3001
,
1001
0000
0020
0030
,
1001
1000
0010
0100
,
0001
0100
1000
0100
,
0001
0010
0001
0010
,
0100
0001
0100
1000
,
0001
0100
0010
0100
,
0001
1000
0001
0001
,
0010
0100
1000
0100
,
1000
1000
0001
0100
,
0000
0000
0001
0000
0000
0001
0000
0000
0001
0000
0000
0001
0000
0000
1000
0000
,
0000
0000
1000
0000
0000
1000
0000
0000
1000
0000
0000
1000
0000
0000
0001
0000
,
0000
0000
0001
0000
0000
0100
0000
0000
0100
0000
0000
0100
0000
0000
0100
0000
,
0000
0000
0001
0000
0000
0010
0000
0000
0010
0000
0000
0010
0000
0000
0010
0000
,
0001
1000
0001
1000
,
0100
1000
0100
1000
,
0001
0100
0001
0000
1000
0100
1000
0000
,
1002
0000
2003
0000
,
3001
0000
0000
0000
0000
0000
0000
0010
,
0000
0100
0000
0000
0000
0000
0000
0000
,
1000
0010
0000
0000
,
0000
0000
0000
0000
,
0100
0000
0001
0000
0000
0000
0000
0001
,
0000
0010
0000
0000
0000
0000
0000
0100
,
0000
0010
0000
0000
0000
0000
0000
0000
,
0000
0000
0000
0000
,
0001
0000
0000
0000
0000
0000
0000
0100
,
0000
0010
0000
0000
0000
0000
0000
0000
,
1000
0100
0000
0000
,
0000
0000
2000
3002
,
0023
0000
0000
0000
,
0230
0000
2300
0000
,
3002
0000
0000
0000
,
0000
0000
0000
0000
,
1003
0000
0000
0000
;

//---------------dance-single - ----------------
#NOTES:
     dance-single:
     :
     Hard:
     7:
     0.396,0.600,0.106,0.265,0.128:
0000
0000
0000
0000
,
0000
0000
0000
0000
,
0000
0000
0000
0000
,
0000
0000
0000
0000
,
0000
0000
0000
0000
,
0000
0000
0000
0000
,
0000
0000
0000
0000
,
0000
0000
0000
0000
,
1000
0000
0000
0000
0000
0000
0000
0001
,
0100
0010
0000
0000
0000
0000
0000
0000
,
1000
0001
0000
0000
,
0000
0000
0000
0000
,
0001
0010
0001
0000
0000
0000
0000
0001
,
0010
0100
0000
0000
0000
0000
0000
1000
,
0000
0001
0100
0000
0000
0000
0000
0000
,
0000
0000
0000
0000
,
1000
0000
1000
0000
0001
0100
0001
0100
,
0010
0000
0010
0000
0010
1000
0010
1000
,
0100
0000
0100
0000
0010
0001
0010
0001
,
0010
0100
1000
0100
,
0010
0000
0010
0000
0001
0100
0001
0100
,
0001
0000
0001
0000
1000
0100
1000
0100
,
1000
1000
0001
0100
,
0001
0001
0010
0000
,
1001
0001
0010
0100
,
0001
0100
1000
0100
,
0020
0000
0001
0000
1000
0000
0031
0100
,
0001
0000
0001
0000
1000
0100
0010
0000
,
0020
0001
0031
0100
,
0010
1000
0100
0010
,
0200
1000
0001
1300
,
1000
0001
0100
0001
,
0011
0010
0100
1000
,
0001
0100
0010
1000
,
1020
0100
1000
0100
,
0100
0130
0001
0010
,
1100
1000
0100
0010
,
1001
0001
0100
0010
,
2200
3300
0202
0303
,
0220
0330
2002
3003
,
1000
0100
1000
0000
0001
0100
0001
0010
,
0000
0010
0000
0010
0000
0001
0100
0000
,
0010
1000
0010
0000
1000
0100
0010
0100
,
0000
0100
0000
0100
0020
0000
0032
0000
,
0203
1000
0001
1000
,
0302
1003
0020
0130
,
0002
0010
1000
0013
,
0011
1000
2200
3300
,
1000
0000
0100
0000
0000
0010
0000
0000
0100
0000
0000
1000
0000
0000
0001
0000
,
0000
0000
0001
0000
0000
0100
0000
0000
0010
0000
0000
0100
0000
0000
0001
0000
,
0000
0000
1000
0000
0000
0100
0000
0000
0010
0000
0000
0010
0000
0000
0001
0000
,
1000
0000
0001
0000
0000
0100
0000
0000
0010
0000
0000
0010
0000
0000
1000
0000
,
0000
0000
0001
0000
0000
0100
0000
0000
0010
0000
0000
0100
0000
0000
0010
0000
,
0000
0000
0010
0000
0000
1000
0000
0000
0100
0000
0000
0010
0000
0000
0100
0000
,
0000
0000
1000
0000
0000
0001
0000
0000
1000
0000
0000
0001
0000
0000
0100
0000
,
0000
0000
0001
0000
0000
0001
0000
0000
1000
0000
0000
1000
0000
0000
0100
0000
,
0000
0000
1000
0000
0001
0010
0000
0000
0001
0000
0010
0001
0000
0000
1000
0000
,
0000
0000
0010
0000
0000
1000
0000
0000
0001
0000
0000
0010
0000
0000
0001
0000
,
0000
0000
1000
0000
0001
0100
0000
0000
0001
0000
0100
0001
0000
0000
0100
0000
,
0000
0000
0001
0000
0000
0001
0000
0000
0010
0000
0000
0100
0000
0000
1000
0000
,
0001
0000
1000
0000
0010
0100
0000
0000
0001
0000
1000
0100
0000
0010
0100
0000
,
0000
0000
1000
0000
0000
0001
1000
0000
0010
0000
0000
0100
0000
0000
0001
0000
,
2000
3100
0002
0103
,
2000
3010
0002
0013
,
1001
0000
0000
0000
0000
0000
0000
1000
,
0100
0010
0000
0000
0000
0000
0000
0000
,
0001
0100
0000
0000
,
0000
0000
0000
0000
,
0001
0010
0001
0000
0000
0000
0000
1000
,
0001
0100
0000
0000
0000
0000
0000
0010
,
0000
0100
0001
0000
0000
0000
0000
0000
,
0000
0000
0000
0000
,
1000
0000
0000
0000
0000
0000
0000
0100
,
0010
0100
0000
0000
0000
0000
0000
0000
,
0010
0001
0000
0000
,
0000
0000
0002
0203
,
0320
0000
0000
0000
,
2030
0000
3200
0000
,
0320
0000
0000
0000
,
0000
0000
0000
0000
,
0031
0000
0000
0000
;

//---------------dance-double - ----------------
#NOTES:
     dance-double:
     :
     Hard:
     7:
     0.365,0.494,0.106,0.220,0.119: // measure 1
00000000
00000000
00000000
00000000
,  // measure 2
00000000
00000000
00000000
00000000
,  // measure 3
00000000
00000000
00000000
00000000
,  // measure 4
00000000
00000000
00000000
00000000
,  // measure 5
00000000
00000000
00000000
00000000
,  // measure 6
00000000
00000000
00000000
00000000
,  // measure 7
00000000
00000000
00000000
00000000
,  // measure 8
00000000
00000000
00000000
00000000
,  // measure 9
10000000
00000000
00000000
00000000
00000000
00000000
00000000
00010000
,  // measure 10
01000000
00001000
00000000
00000000
00000000
00000000
00000000
00000000
,  // measure 11
01000000
00100000
00000000
00000000
,  // measure 12
00000000
00000000
00000000
00000000
,  // measure 13
10000000
01000000
00100000
00000000
00000000
00000000
00000000
00010000
,  // measure 14
01000000
00001000
00000000
00000000
00000000
00000000
00000000
00100000
,  // measure 15
00000000
01000000
10000000
00000000
00000000
00000000
00000000
00000000
,  // measure 16
00000000
00000000
00000000
00000000
,  // measure 17
00020000
10000000
00100000
01030000
,  // measure 18
00200000
00010000
00001000
00310000
,  // measure 19
00002000
01000000
00010000
00003010
,  // measure 20
00000020
00000001
00000100
00000031
,  // measure 21
00000200
00000001
00001000
00000301
,  // measure 22
00000002
00000100
00001000
00000103
,  // measure 23
00002000
00000010
00000001
00003100
,  // measure 24
00001100
00010000
00001000
00010000
,  // measure 25
00110000
00010000
01000000
01000000
,  // measure 26
00100000
10000000
01000000
01000000
,  // measure 27
20000000
00100000
00010000
30100000
,  // measure 28
00020000
00100000
10000000
00130000
,  // measure 29
00020000
01030000
00100000
10000000
,  // measure 30
02000000
03100000
00010000
01000000
,  // measure 31
00001000
00001000
00010000
00010000
,  // measure 32
00000010
00000100
00000001
00000010
,  // measure 33
00000011
00000100
00001000
00000001
,  // measure 34
00000100
00000010
00001000
00000100
,  // measure 35
00000011
00000001
00001000
00000010
,  // measure 36
00000100
00001000
00010000
01000000
,  // measure 37
11000000
10000000
00010000
01000000
,  // measure 38
01010000
10000000
00100000
01000000
,  // measure 39
11000000
00000000
01010000
00000000
,  // measure 40
00110000
00000000
10100000
00000000
,  // measure 41
10000000
01000000
00100000
00000000
00100000
01000000
00000000
10000000
,  // measure 42
00000000
00010000
00000000
01000000
00000000
00100000
10000000
00010000
,  // measure 43
00000000
00010000
10000000
00000000
10000000
01000000
00100000
00010000
,  // measure 44
00000000
00010000
00000000
01000000
00000000
00001000
00100000
00010000
,  // measure 45
20000000
00010000
01000000
30010000
,  // measure 46
00020000
10000000
01000000
10030000
,  // measure 47
00010000
01000000
00001000
00010000
,  // measure 48
00000100
00000010
00000022
00000033
,  // measure 49
00000001
00000000
00000100
00000000
00000000
00000010
00000000
00000000
00001000
00000000
00000000
00000100
00000000
00000000
00001000
00000000
,  // measure 50
00000000
00000000
00001000
00000000
00000000
00000100
00000000
00000000
00000010
00000000
00000000
00000001
00000000
00000000
00000100
00000000
,  // measure 51
00000000
00000000
00000010
00000000
00000000
00001000
00000000
00000000
00000001
00000000
00000000
00001000
00000000
00000000
00000100
00000000
,  // measure 52
00000000
00000100
00000000
00000000
00000010
00000000
00000000
00000010
00000000
00000000
00000001
00000000
00000100
00000000
00000010
00000000
,  // measure 53
00000000
00000000
00000100
00000000
00000000
00001000
00000000
00000000
00010000
00000000
00000000
00001000
00000000
00000000
00000010
00000000
,  // measure 54
00000000
00000000
00001000
00000000
00000000
00010000
00000000
00000000
00100000
00000000
00000000
00010000
00000000
00000000
00001000
00000000
,  // measure 55
00000000
00000000
00100000
00000000
00000000
01000000
00000000
00000000
10000000
00000000
00000000
00010000
00000000
00000000
01000000
00000000
,  // measure 56
00000000
00000000
00100000
00000000
00000000
10000000
00000000
00000000
00010000
00000000
00000000
00010000
00000000
00000000
10000000
00000000
,  // measure 57
00000000
00000000
10000000
00000000
00000000
01000000
00000000
00000000
00010000
00000000
00000000
00001000
00000000
00000000
00010000
00000000
,  // measure 58
00000000
00000000
01000000
00000000
00000000
10000000
00000000
00000000
00100000
00000000
00000000
00010000
00000000
00000000
00001000
00000000
,  // measure 59
00000000
00000000
00010000
00000000
00000000
00100000
00000000
00000000
10000000
00000000
00000000
01000000
00000000
00000000
00100000
00000000
,  // measure 60
00000000
00100000
00000000
00000000
00010000
00000000
00000000
00000000
00010000
00000000
10000000
00000000
01000000
00000000
10000000
00000000
,  // measure 61
00000000
00000000
00010000
00000000
00000000
00100000
00000000
00000000
00001000
00000000
00000000
00001000
00000000
00000000
00010000
00000000
,  // measure 62
00000000
00000000
00001000
00000000
00000000
00100000
00000000
00000000
00010000
00000000
00000000
01000000
00000000
00000000
00100000
00000000
,  // measure 63
20000000
31000000
00200000
01300000
,  // measure 64
20000000
30010000
02000000
03010000
,  // measure 65
10010000
00000000
00000000
00000000
00000000
00000000
00000000
10000000
,  // measure 66
01000000
00100000
00000000
00000000
00000000
00000000
00000000
00000000
,  // measure 67
00001000
00010000
00000000
00000000
,  // measure 68
00000000
00000000
00000000
00000000
,  // measure 69
00001000
00010000
00000100
00000000
00000000
00000000
00000000
00010000
,  // measure 70
00000010
00010000
00000000
00000000
00000000
00000000
00000000
00001000
,  // measure 71
00000000
00000100
00000001
00000000
00000000
00000000
00000000
00000000
,  // measure 72
00000000
00000000
00000000
00000000
,  // measure 73
00000001
00000000
00000000
00000000
00000000
00000000
00000000
00000001
,  // measure 74
00000010
00000100
00000000
00000000
00000000
00000000
00000000
00000000
,  // measure 75
00010000
00001000
00000000
00000000
,  // measure 76
00000000
00000000
02000000
03200000
,  // measure 77
20300000
00000000
00000000
30000000
,  // measure 78
02000000
00000000
03200000
00000000
,  // measure 79
00320000
00000000
00000000
00000000
,  // measure 80
00000000
00000000
00000000
00000000
,  // measure 81
10030000
00000000
00000000
00000000
;
