#TITLE:Squid vs Pantyhose;
#SUBTITLE:;
#ARTIST:m1dy vs M-Project;
#TITLETRANSLIT:;
#SUBTITLETRANSLIT:;
#ARTISTTRANSLIT:;
#GENRE:Speedcore;
#CREDIT:Thumbsy;
#MENUCOLOR:#FF0000;
#METERTYPE:DDR;
#BANNER:Squid vs Pantyhose-bn.png;
#BACKGROUND:Squid vs Pantyhose-bg.png;
#LYRICSPATH:;
#CDTITLE:CDTitle.png;
#MUSIC:Squid vs Pantyhose.mp3;
#OFFSET:-1.044;
#SAMPLESTART:100.000;
#SAMPLELENGTH:12.000;
#SELECTABLE:YES;
#LISTSORT:;
#DISPLAYBPM:90.000:360.000;
#BPMS:0.000=90.030,32.000=180.060,60.000=360.120,174.000=344.165,178.000=364.510,190.000=180.060,282.000=360.000,536.000=1440.000,552.000=90.000;
#STOPS:60.000=1.001
,282.000=1.017
;
#BGCHANGES:24.250=bgchanges/Hero.png=1.000=0=0=1,
26.250=bgchanges/Sword.png=1.000=0=0=1,
28.250=bgchanges/Sword2.png=1.000=0=0=1,
30.500=bgchanges/Truth.png=1.000=0=0=1,
32.000=Squid vs Pantyhose-bg.png=1.000=0=0=1,
60.000=bgchanges/LEVEL1.png=1.000=0=0=1,
60.001=bgchanges/LEVEL1-FIGHT.png=1.000=0=0=1,
63.000=Squid vs Pantyhose-bg.png=1.000=1=0=1,
190.001=bgchanges/M-Project invades.png=1.000=0=0=1,
282.000=bgchanges/LEVEL2.png=1.000=0=0=1,
282.001=bgchanges/LEVEL2-FIGHT.png=1.000=0=0=1,
285.000=Squid vs Pantyhose-bg.png=1.000=1=0=1,
444.000=bgchanges/m1dy vs M-Project.png=1.000=0=0=1,
444.250=Squid vs Pantyhose-bg.png=1.000=0=0=1,
444.500=bgchanges/m1dy vs M-Project.png=1.000=0=0=1,
444.750=Squid vs Pantyhose-bg.png=1.000=0=0=1,
445.000=bgchanges/m1dy vs M-Project.png=1.000=0=0=1,
445.250=Squid vs Pantyhose-bg.png=1.000=0=0=1,
445.500=bgchanges/m1dy vs M-Project.png=1.000=0=0=1,
445.750=Squid vs Pantyhose-bg.png=1.000=0=0=1,
446.000=bgchanges/m1dy vs M-Project.png=1.000=0=0=1,
536.000=bgchanges/Hero.png=1.000=0=0=1,
538.000=bgchanges/Sword.png=1.000=0=0=1,
540.000=bgchanges/LEVEL1.png=1.000=0=0=1,
542.000=bgchanges/Sword2.png=1.000=0=0=1,
544.000=bgchanges/Truth.png=1.000=0=0=1,
546.000=bgchanges/LEVEL1-FIGHT.png=1.000=0=0=1,
548.000=bgchanges/M-Project invades.png=1.000=0=0=1,
550.000=bgchanges/LEVEL2.png=1.000=0=0=1,
552.000=Squid vs Pantyhose-bg.png=1.000=0=0=1,
99999=-nosongbg-=1.000=0=0=0 // don't automatically add -songbackground-
;
#ATTACKS:;

//---------------dance-single - ----------------
#NOTES:
     dance-single:
     :
     Beginner:
     4:
     0.208,0.343,0.103,0.276,0.000:
0000
0000
0000
0000
,
0000
0000
0000
0000
,
0000
0000
0000
0000
,
0000
0000
0000
0000
,
1000
0000
1000
0000
,
0001
0000
0100
0000
,
0010
0000
1000
0000
,
0100
0000
1000
0000
,
2002
3003
0000
0000
,
0000
0000
0000
0000
,
2002
3003
0000
0000
,
0000
0000
0000
0000
,
2002
3003
0000
0000
,
0000
0000
0000
0000
,
2000
0000
0000
3000
,
1001
0000
0000
0000
,
1000
0000
0000
0000
,
0001
0000
0000
0000
,
0100
0000
0000
0000
,
0001
0000
0000
0000
,
0100
0000
0000
0000
,
0001
0000
0000
0000
,
1000
0000
0000
0000
,
0010
0000
0000
0000
,
0001
0000
0000
0000
,
0001
0000
0000
0000
,
0100
0000
0000
0000
,
0010
0000
0000
0000
,
1000
0000
0000
0000
,
1000
0000
0000
0000
,
0100
0000
0100
0000
,
0100
0000
0000
0000
,
1000
0000
0000
0000
,
1000
0000
0000
0000
,
0100
0000
0000
0000
,
0010
0000
0000
0000
,
0001
0000
0000
0000
,
1000
0000
0000
0000
,
0001
0000
1000
0000
,
0001
0000
0000
0000
,
0100
0000
0000
0000
,
0010
0000
0000
0000
,
1000
0000
0000
0000
,
1000
0000
0000
0000
,
0001
0000
0100
0000
,
0001
0000
2000
0000
,
0000
0000
0000
0000
,
3000
0000
1000
0000
,
0000
0000
0001
0000
,
0000
0000
0100
0000
,
0000
0000
0010
0000
,
1000
0000
0001
0000
,
0000
0000
1000
0000
,
0000
0000
0010
0000
,
0000
0000
0001
0000
,
1000
0000
1000
0000
,
0000
0000
0100
0000
,
0000
0000
0010
0000
,
0000
0000
1000
0000
,
0001
0000
0100
0000
,
0000
0000
1000
0000
,
0000
0000
1000
0000
,
0000
0000
0100
1000
,
0001
1000
0010
0000
,
0000
0000
2002
3003
,
0000
0000
1000
0000
,
0000
0000
0220
0330
,
0000
0000
0001
0000
,
0000
0000
2200
3300
,
0000
0000
0001
0000
,
2002
3003
1000
0000
,
1000
0000
0000
0000
,
0001
0000
0001
0000
,
0000
0000
0000
0000
,
1000
0000
0100
0000
,
0000
0000
0000
0000
,
0001
0000
0100
0000
,
0000
0000
1000
0000
,
1000
0000
1000
0000
,
0000
0000
0000
0000
,
0001
0000
0000
0000
,
1000
0000
0000
0000
,
0100
0000
0000
0000
,
0010
0000
0001
0000
,
0010
0000
0001
0000
,
2000
0000
0000
0000
,
0000
0000
3000
0000
,
0000
0000
1000
0000
,
0001
0000
1000
0000
,
0000
0000
0100
0000
,
0000
0000
0100
0000
,
0000
0000
0010
0000
,
0001
0000
0100
0000
,
0000
0000
0010
0000
,
0000
0000
0010
0000
,
0000
0000
1000
0000
,
0100
0000
0010
0000
,
0000
0000
0100
0000
,
0010
0000
0001
0000
,
0000
0000
0001
0000
,
0100
0000
0010
0000
,
2002
0000
0000
0000
,
3003
0000
0000
0000
,
1000
0000
0001
0000
,
1000
0000
0100
0000
,
1000
0000
0001
0000
,
0010
0000
0000
0000
,
0001
0000
0100
0000
,
0010
0000
1000
0000
,
0010
0000
0100
0000
,
0001
0000
1000
0000
,
1000
0001
1000
0000
,
0100
0000
0010
0000
,
0100
0010
0100
0000
,
1000
0000
0001
0000
,
2000
3000
0200
0300
,
0020
0030
0200
0300
,
2002
0000
0000
0000
,
0000
0000
0000
3003
,
2002
0000
3003
0000
,
0000
0000
0000
0000
,
0000
0000
0000
0000
,
0000
2000
0000
3000
,
2002
0000
3003
0000
,
0000
0000
0000
0000
,
0000
0000
0000
0000
,
0000
0000
0200
0300
,
2200
0000
3300
0000
,
0000
0000
0000
0000
,
0022
0000
0033
0000
,
0000
0000
0000
0000
,
2002
0000
3003
0000
,
0002
0000
0003
0000
,
2000
0000
0002
0000
,
0MM0
0MM0
0MM0
0MM0
,
0MM0
0MM0
0MM0
0MM0
,
0MM0
0MM0
0MM0
0MM0
,
0MM0
0MM0
0MM0
0MM0
,
0000
0000
0000
0000
,
0000
0000
0000
0000
,
0000
0000
0000
0000
,
0000
0000
0000
0000
,
3003
0000
0000
0000
;

//---------------dance-single - ----------------
#NOTES:
     dance-single:
     :
     Easy:
     6:
     0.377,0.636,0.207,0.324,0.000: // measure 1
0000
0000
0000
0000
,  // measure 2
0000
0000
0000
0000
,  // measure 3
0000
0000
0000
0000
,  // measure 4
0000
0000
0000
0000
,  // measure 5
1000
0000
0001
0001
,  // measure 6
0100
0000
1000
1000
,  // measure 7
0100
0000
1000
0001
,  // measure 8
0100
0001
1000
0100
,  // measure 9
2002
3003
0100
1000
,  // measure 10
0000
0000
0001
0010
,  // measure 11
1100
0000
1000
0010
,  // measure 12
0000
0000
0100
0001
,  // measure 13
1010
0000
0001
1000
,  // measure 14
0000
0000
1000
0001
,  // measure 15
0220
0000
0000
0330
,  // measure 16
1001
0000
0000
0000
,  // measure 17
1000
0000
0100
0000
,  // measure 18
1000
0010
0000
0000
,  // measure 19
0001
0000
0100
0000
,  // measure 20
0001
0010
0000
0000
,  // measure 21
0001
0000
0010
0000
,  // measure 22
0100
1000
0000
0000
,  // measure 23
0010
0000
1000
0000
,  // measure 24
0001
0100
0001
0000
,  // measure 25
0100
0000
0010
0000
,  // measure 26
1000
0001
0000
0000
,  // measure 27
0001
0000
1000
0000
,  // measure 28
0100
0010
0000
0000
,  // measure 29
0001
0000
0100
0000
,  // measure 30
0010
0000
0100
0000
0002
0000
0003
1000
,  // measure 31
0000
0001
1000
0000
,  // measure 32
0002
0000
0000
0003
,  // measure 33
1000
0000
0100
0000
,  // measure 34
0001
0010
0000
0000
,  // measure 35
0001
0000
0010
0000
,  // measure 36
1000
0100
0000
0000
,  // measure 37
0001
0000
1000
0000
,  // measure 38
0001
1000
0000
0000
,  // measure 39
0010
0000
0100
0000
,  // measure 40
0010
0100
0000
0000
,  // measure 41
2000
0000
3100
0000
,  // measure 42
2000
3100
0000
0000
,  // measure 43
0002
0000
0103
0000
,  // measure 44
0001
0100
0001
1000
,  // measure 45
0001
0000
1000
0001
,  // measure 46
1000
0000
2002
0000
,  // measure 47
0000
0000
0000
0000
,  // measure 48
3003
0000
1000
0000
,  // measure 49
1000
0001
0100
0000
,  // measure 50
0010
1000
0001
0000
,  // measure 51
0010
0001
1000
0010
,  // measure 52
0100
0001
0010
0000
,  // measure 53
0001
1000
1000
0000
,  // measure 54
0001
0100
0100
0000
,  // measure 55
0001
1000
0100
0010
,  // measure 56
0100
1000
0010
0100
,  // measure 57
0010
0100
0001
0010
,  // measure 58
0001
0100
0010
1000
,  // measure 59
0100
0010
0001
1000
,  // measure 60
0010
0100
0001
1000
,  // measure 61
0100
1000
0001
0100
,  // measure 62
0001
0100
0010
1000
,  // measure 63
0010
1000
0001
0010
,  // measure 64
0001
0010
1001
0000
,  // measure 65
0000
0000
2200
3300
,  // measure 66
0000
0000
1001
0000
,  // measure 67
0000
0000
0202
0303
,  // measure 68
0000
0000
0110
0000
,  // measure 69
0000
0000
2020
3030
,  // measure 70
0000
0000
0011
0000
,  // measure 71
0220
0330
1001
0000
,  // measure 72
1000
0001
1000
0001
,  // measure 73
1000
0000
0010
0100
,  // measure 74
0000
0001
1000
0001
,  // measure 75
0010
0001
0100
0010
,  // measure 76
0000
1000
0100
1000
,  // measure 77
0100
1000
0001
0100
,  // measure 78
0000
0001
0100
0000
,  // measure 79
0010
0000
1000
0100
,  // measure 80
0000
1000
0100
0000
,  // measure 81
1000
0000
0001
0000
,  // measure 82
0000
0010
0100
0010
,  // measure 83
0100
0010
0001
1000
,  // measure 84
0000
0001
1000
0000
,  // measure 85
1000
0000
1000
0000
,  // measure 86
2002
0000
0000
0000
,  // measure 87
0000
0000
3003
0000
,  // measure 88
1000
0000
0001
0000
,  // measure 89
1000
0100
1000
0000
,  // measure 90
0001
0000
0100
0001
,  // measure 91
0100
0001
0100
0000
,  // measure 92
0010
0000
0100
0000
,  // measure 93
0010
1000
0010
0000
,  // measure 94
0001
0010
0001
0010
,  // measure 95
0001
0000
0001
0000
,  // measure 96
1000
0000
0100
0000
,  // measure 97
0010
0001
0010
0000
,  // measure 98
0100
0000
1000
0000
,  // measure 99
0100
0010
0100
0000
,  // measure 100
1000
0001
1000
0010
,  // measure 101
1000
0001
1000
0000
,  // measure 102
2002
0000
0000
0000
,  // measure 103
0000
0000
3003
0000
,  // measure 104
1001
0000
0100
0010
,  // measure 105
0100
0010
0100
0010
,  // measure 106
0100
0000
1000
0000
,  // measure 107
0001
0000
0100
0000
,  // measure 108
0001
0100
0001
0100
,  // measure 109
0010
1000
0010
1000
,  // measure 110
0001
0000
0010
0000
,  // measure 111
0100
0000
1000
0000
,  // measure 112
0001
0010
0100
1000
,  // measure 113
0001
0010
0100
1000
,  // measure 114
0010
0100
0001
1000
,  // measure 115
0010
0100
0001
0000
,  // measure 116
0022
0033
2020
3030
,  // measure 117
2200
3300
0202
0303
,  // measure 118
2002
0000
0000
0000
,  // measure 119
0000
0000
3003
0000
,  // measure 120
0220
0000
0330
0000
,  // measure 121
0010
0000
1000
0000
,  // measure 122
0000
0000
0000
0000
,  // measure 123
1000
0000
0100
0000
,  // measure 124
2002
0000
3003
0000
,  // measure 125
0001
0000
0100
0000
,  // measure 126
0000
0000
0000
0000
,  // measure 127
0100
0000
0001
0000
,  // measure 128
2002
0000
3003
0000
,  // measure 129
0100
0000
0000
0000
,  // measure 130
0220
0000
0330
0000
,  // measure 131
0010
0000
0000
0000
,  // measure 132
0202
0000
0303
2020
,  // measure 133
0000
3030
0000
0000
,  // measure 134
0001
0000
0010
0000
,  // measure 135
0220
M00M
M00M
M00M
,  // measure 136
M00M
M00M
M00M
M00M
,  // measure 137
M00M
M00M
M00M
M00M
,  // measure 138
M00M
M00M
M00M
M00M
,  // measure 139
0000
0000
0000
0000
,  // measure 140
0000
0000
0000
0000
,  // measure 141
0000
0000
0000
0000
,  // measure 142
0000
0000
0000
0000
,  // measure 143
0330
0000
0000
0000
;

//---------------dance-single - ----------------
#NOTES:
     dance-single:
     :
     Medium:
     9:
     0.529,0.734,0.179,0.358,0.000:
0000
0000
0000
0000
,
0000
0000
0000
0000
,
0000
0000
0000
0000
,
0000
0000
0000
0000
,
1000
0000
0000
0001
0001
0000
0000
0000
,
1000
0000
0000
0001
0001
0000
0000
0000
,
1000
1000
1000
0000
0001
0000
0001
0000
,
0100
0100
0100
0000
0020
0000
0030
0000
,
2002
0000
3003
0000
1000
0000
0010
1000
,
0000
0000
0000
0000
0001
0000
0010
0001
,
1000
0000
0000
0000
0100
0000
1000
0010
,
0000
0000
0100
0000
0001
0000
0010
0001
,
2002
0000
3003
0000
0001
0000
0010
0001
,
0000
0000
0000
0000
0010
0000
0001
1000
,
0200
0000
0000
0300
,
2000
3000
0001
0100
,
0010
1000
0001
0100
,
0010
1000
0000
0000
,
0001
1000
0001
1000
,
0100
0010
0000
0000
,
0001
1000
0010
0100
,
0001
1000
0000
0000
,
0100
1000
0100
0010
,
0001
1000
0000
0000
,
0010
1000
0100
0010
,
0001
0100
0000
0000
,
2000
0000
0002
3003
,
1001
1001
0000
0000
,
0001
0100
1000
0100
,
0010
0000
1000
0000
0100
0000
0000
0010
,
0000
0100
1000
0001
,
0100
0010
0000
0000
,
1000
0001
1000
0010
,
0100
1000
0000
0000
,
0100
0001
0010
0001
,
1000
0001
0000
0000
,
0100
0010
0200
1300
,
0100
0001
0000
0000
,
1000
0200
0301
0100
,
0010
0100
0000
0000
,
1000
0010
0200
1300
,
0100
0001
0000
0000
,
0010
0100
0010
0100
,
1000
0001
1000
0010
,
1000
0001
0010
0100
,
0010
0000
0100
1000
0002
0000
0000
0000
,
0000
0000
0000
0000
,
0000
0000
0003
0000
1000
0001
0100
0000
,
0010
1000
0100
1000
0010
0100
0001
0000
,
1000
0010
1000
0000
0001
0100
0001
0000
,
1000
0010
1000
0100
1000
0001
1000
0000
,
1000
0100
0001
0000
0100
0010
0001
0000
,
1000
0010
0100
1000
0100
0010
1000
0000
,
0001
0010
0001
0000
1000
0100
1000
0000
,
0010
0100
0010
1000
0100
0010
0100
0000
,
1000
0010
0001
0010
1000
0100
0010
0000
,
0001
0100
0010
1000
0100
0010
0001
0000
,
1000
0010
0001
0010
0100
0001
1000
0000
,
0001
0100
0001
1000
0001
0100
0010
0000
,
1000
0001
1000
0000
0100
0010
0100
0000
,
0010
0001
0100
0010
1000
0100
1000
0000
,
0001
0100
1000
0100
0001
0010
0001
0000
,
0100
0010
0100
1000
0100
0010
1000
0000
,
0010
0100
0001
1000
1001
0000
0000
0000
,
0100
0000
2200
3300
,
0010
0000
0101
0000
,
0001
0000
2020
3030
,
0100
0000
0110
0000
,
1000
0000
0022
0033
,
1000
0000
0101
0000
,
2200
3300
2002
3003
,
1000
0000
0100
0000
1000
0000
0001
0100
,
0001
1000
0010
0100
,
0001
0000
0010
0000
0100
0000
1000
0001
,
1000
0010
0100
0001
,
1000
0000
0001
0000
0100
0000
0001
1000
,
0001
1000
0001
0001
,
0100
0000
0010
0000
1000
0010
1000
0000
,
0002
0000
0000
0003
,
1000
0100
0010
0001
,
0100
0010
0100
0000
0001
0000
0010
0000
,
0100
1000
0002
1003
,
0100
0000
0010
0001
0010
0000
0001
0000
,
0100
0010
1000
0100
,
1000
0001
0000
0000
2000
0000
0000
0000
,
0002
0000
0000
0000
,
0000
3003
0000
0000
,
1000
0100
1000
0100
,
0010
0001
1000
0001
,
0100
0010
1000
0001
,
0100
1000
0100
0001
,
0000
0000
1000
0001
,
0100
0001
1000
0010
,
1000
0001
1000
0100
,
0010
0000
0001
0000
0100
0001
0100
0000
,
0000
0000
1000
0100
,
0001
0100
1000
0001
,
0000
0000
1000
0010
,
0001
0010
1000
0001
,
0000
0000
1000
0010
,
0100
0001
0010
0100
,
2002
0000
0000
0000
,
0000
0000
3003
0000
,
1001
0100
1000
1000
,
0100
0100
0010
0001
,
0010
0100
0001
0100
,
1000
0010
0100
0010
,
1000
0000
0001
0010
0001
0000
1000
0000
,
0010
0100
0001
0010
,
0001
0010
0001
0100
,
0010
0100
0001
0000
1000
0000
1000
0000
,
0001
0100
0001
0000
0010
0000
1000
0000
,
0100
1000
0100
0000
0010
0000
0001
0000
,
0100
0010
0100
0000
0001
0000
1000
0000
,
0100
0010
0100
0000
1000
0000
0001
0000
,
1000
0010
1000
0000
0001
0010
0001
0000
,
1000
0100
1000
0000
0001
0100
0001
0000
,
2002
0000
0000
0000
,
0000
0000
0000
3003
,
0220
0000
0330
0000
,
1000
0000
0100
0001
,
0000
0000
0100
0000
,
0010
0002
0000
0003
,
2002
0000
3003
0000
,
1000
0000
0010
0100
,
0000
0000
1000
0000
,
0100
0000
0202
0303
,
2020
3030
0001
0000
,
0100
0000
0010
0000
,
2020
0000
3030
0000
,
0001
0000
0100
0000
,
2020
0000
3030
0000
,
0202
0000
0303
0000
,
2002
3003
0220
0330
,
0202
M0M0
M0M0
M0M0
,
M0M0
M0M0
M0M0
M0M0
,
M0M0
M0M0
M0M0
M0M0
,
M0M0
M0M0
M0M0
M0M0
,
0000
0000
0000
0000
,
0000
0000
0000
0000
,
0000
0000
0000
0000
,
0000
0000
0000
0000
,
0303
0000
0000
0000
;

//---------------dance-single - ----------------
#NOTES:
     dance-single:
     :
     Hard:
     12:
     0.632,0.832,0.207,0.434,0.041:
0000
0000
0000
0000
,
0000
0000
0000
0000
,
0000
0000
0000
0000
,
0000
0000
0000
0000
,
1000
1000
0001
0000
0000
0000
0100
0100
0010
0000
0000
0000
0000
0000
0000
0000
,
0010
0010
1000
0000
0000
0000
0100
0100
0010
0000
0000
0000
0000
0000
0000
0000
,
0001
0000
1000
0000
,
0001
0000
0100
0000
0010
1000
0001
0100
,
2002
0000
3003
0000
1000
0000
0010
0100
,
0001
0000
1000
0000
0001
0100
0000
0000
,
0220
0000
0330
0000
1000
0000
0100
0010
,
0001
1000
0001
0100
,
0220
0000
0330
0000
1000
0000
0010
0100
,
0001
0000
1000
0100
0010
0000
0001
0010
,
0200
0000
0000
0000
,
2000
3300
1000
0100
,
0010
0001
0100
1000
,
0100
0001
1000
0010
,
0100
0001
0100
0000
0010
0000
1000
0000
,
0010
1000
0010
0100
,
0001
0010
0001
0100
,
0010
0000
1000
0001
1000
0000
0001
0000
,
1000
0000
0100
0000
1000
0100
1000
0000
,
0000
0000
0001
0100
0001
0000
1000
0000
,
0100
1000
0010
0001
,
0010
1000
0100
1000
,
0001
1000
0001
0000
0010
0000
0100
0000
,
1000
0010
0100
0001
,
1000
0100
0001
0100
,
2000
0000
3000
0000
1000
0000
0000
0001
,
0000
0000
1000
0000
0001
0010
0001
0000
,
0000
0000
1000
0100
1000
0000
1000
0000
,
0100
0100
0010
0010
,
0001
0001
0010
0010
,
0100
1000
0100
0000
0010
0000
0001
0000
,
0100
0010
0100
0000
0010
0000
1000
0001
,
1000
0100
0010
0100
,
0010
0000
0001
1000
0001
0000
0100
0000
,
0010
0000
1000
0000
0001
0010
0001
0000
,
0000
0000
1000
0100
1000
0000
0100
0000
,
1000
0100
0001
1000
,
0010
0001
0100
1000
,
0100
0001
0010
1000
,
0010
0000
0001
0000
1000
0000
0001
0010
,
0001
0000
1000
0100
1000
0000
0010
1000
,
0010
0000
0100
0001
0200
0000
0000
0000
,
0000
0000
M0MM
0000
,
0000
0000
0300
0000
0001
0001
1000
0000
,
1000
0000
0001
0000
1000
0000
0010
0100
0010
0000
0100
0000
0001
0000
0000
0000
,
0010
0000
0001
0000
1000
0000
0100
0010
0100
0000
0010
0000
0001
0000
0000
0000
,
0100
0010
1000
0100
0010
0100
0010
0000
,
0001
1000
0001
0000
0001
0100
0001
0000
,
0001
0000
0100
0000
0001
0000
0010
0001
0010
0000
0100
0000
0010
0000
0000
0000
,
0001
0000
1000
0000
0100
0000
0010
0001
0010
0000
0001
0000
1000
0000
0000
0000
,
1000
0100
0010
0001
0001
0100
1000
0000
,
1000
0100
0001
0000
0100
0010
0100
0000
,
0100
0000
0001
0000
0100
0000
0010
1000
0010
0000
1000
0000
0010
0000
0000
0000
,
1000
0000
0100
0000
0010
0000
0001
0010
0001
0000
0010
0000
0100
0000
0000
0000
,
1000
0010
0100
0001
1000
0100
0001
0100
,
1000
0001
0100
1000
0100
0001
1000
0000
,
1000
0000
0010
0000
0100
0000
0001
0100
0001
0000
0010
0000
0100
0000
0000
0000
,
0100
0000
0010
0000
0001
0000
0100
0010
0100
0000
0001
0000
1000
0000
0000
0000
,
0010
1000
0001
0001
1000
0100
0001
0001
,
0001
0100
1000
1000
2000
0000
3000
0000
,
0000
0000
2MM2
3MM3
,
0MM0
0000
M1M1
M0M0
,
M0M0
0000
M22M
M33M
,
M00M
0000
1M1M
0M0M
,
0M0M
0000
MM22
MM33
,
MM00
0000
1MM1
0000
,
M22M
0330
2MM2
3MM3
,
0002
0000
1003
0100
1000
0000
0001
0100
,
0001
0000
0010
0000
0100
0010
0100
0000
,
0010
0001
0010
0000
0100
0000
1000
0001
,
2000
0000
3010
0100
0020
0000
0000
0000
,
0130
0000
0001
0000
2000
0000
3001
0010
,
0001
0000
1000
0100
1000
0000
0001
0000
,
1000
0001
1000
0001
1000
0200
0000
0000
,
0000
M0MM
M0MM
0300
,
1000
0001
0100
0000
0002
0000
1003
0000
,
0100
1000
0200
0000
0301
0000
0100
0000
,
0010
0000
0001
1000
0100
0010
0001
1000
,
0100
0010
0000
0000
0010
0001
2000
0000
,
3001
0000
0100
0001
1000
0100
2000
0000
,
3001
0000
2000
3000
,
2002
0000
0000
0000
,
0000
0000
0000
3003
,
1000
0100
1000
0010
,
0100
0001
0010
0001
,
0100
0000
0010
0000
1000
0001
1000
0000
,
0001
0100
0010
1000
,
0001
1000
0100
1000
,
0010
0000
0001
0000
0010
0000
1000
0001
,
1000
0100
0001
0100
,
1000
0100
1000
0000
0000
0000
0001
0100
,
0001
1000
0100
1000
,
0002
0000
2003
0000
,
3001
0000
0100
0000
0001
1000
0010
0000
,
1000
0100
0010
0001
,
1000
0001
1000
0000
0100
0000
1000
0001
,
0100
0000
0001
1000
0100
0000
1000
0000
,
2002
0000
0000
0000
,
3003
MMMM
0000
0000
,
0001
1001
1100
1001
,
0101
0110
1001
1100
,
2000
0000
0000
0000
3100
0010
0001
0000
,
0010
0000
0100
0000
1000
0010
1000
0001
,
1000
0000
0100
0010
0001
0000
0001
0000
,
0100
0010
1000
0100
,
0010
0100
1000
0001
,
2000
3200
0320
0032
,
1003
0100
0010
0000
0100
1000
0001
0000
,
1000
0100
1000
0100
1000
0001
0100
0000
,
0010
1000
0001
0000
0010
0001
1000
0000
,
0100
0010
0001
0100
0010
1000
0100
0000
,
1000
0010
0100
0010
1000
0001
0010
0100
,
0010
0001
1000
0010
0100
0001
1000
0001
,
2000
0000
0000
0000
,
0000
0000
0000
3000
,
2002
0000
3003
0000
,
1000
0000
0001
0100
,
0000
0000
1000
0000
,
0100
0220
0330
0000
,
2002
0000
3003
0000
,
0001
0000
1000
0100
,
0000
0000
0001
0000
,
1000
0100
2100
3100
,
2002
0000
3003
0000
,
1000
0100
0001
0100
,
2002
0000
3003
0000
,
0001
0100
1000
0100
,
2MM2
0MM0
3MM3
0MM0
,
22MM
00MM
33MM
00MM
,
M22M
M33M
MM22
MM33
,
2MMM
0MMM
0MMM
0MMM
,
0MMM
0MMM
0MMM
0MMM
,
0MMM
0MMM
0MMM
0MMM
,
0MMM
0MMM
0MMM
0MMM
,
0MMM
00MM
000M
00M0
,
0M00
00M0
000M
00M0
,
0M00
00M0
000M
00M0
,
0M00
00M0
000M
00M0
,
3M00
0000
0000
0000
;
