#TITLE:少女IN ~VIRGIN IN~;
#SUBTITLE:;
#ARTIST:DJ TECHNORCH fw. 宇宙☆海月;
#TITLETRANSLIT:SHOUJO-IN -VIRGIN IN-;
#SUBTITLETRANSLIT:;
#ARTISTTRANSLIT:DJ TECHNORCH fw. Uchu*Kurage;
#GENRE:HARDCORE TECHNO POP;
#CREDIT:Thumbsy;
#MENUCOLOR:;
#METERTYPE:DDR;
#BANNER:SHOUJO-IN -VIRGIN IN--bn.png;
#BACKGROUND:SHOUJO-IN -VIRGIN IN--bg.png;
#LYRICSPATH:;
#CDTITLE:CDTitle v1.5.png;
#MUSIC:SHOUJO-IN -VIRGIN IN-.mp3;
#OFFSET:0.152;
#SAMPLESTART:61.200;
#SAMPLELENGTH:17.820;
#SELECTABLE:YES;
#LISTSORT:;
#DISPLAYBPM:215.000;
#BPMS:0.000=215.000,148.000=430.000,164.000=215.000;
#STOPS:;
#BGCHANGES:0.544=SHOUJO-IN -VIRGIN IN-.avi=1.000=1=1=0,
344.000=SHOUJO-IN -VIRGIN IN--bg.png=1.000=1=0=1,
99999=-nosongbg-=1.000=0=0=0 // don't automatically add -songbackground-
;
#ATTACKS:;

//---------------dance-single - ----------------
#NOTES:
     dance-single:
     :
     Beginner:
     3:
     0.163,0.228,0.000,0.010,0.000:
0000
0000
0000
0000
,
0000
0000
0000
0000
,
0000
0000
0000
0000
,
0000
0000
0000
0000
,
0000
0000
0000
0000
,
1000
0000
1000
0000
,
0000
0000
0001
0000
,
0100
0000
0100
0000
,
0000
0000
0010
0000
,
0000
0000
1000
0000
,
0000
0001
0001
0000
,
1000
0000
0000
0000
,
0100
0000
0100
0000
,
0000
0000
0010
0000
,
0000
0000
0100
0000
,
0000
0000
0001
0000
,
0001
0000
1000
0000
,
0000
0000
0001
0000
,
0000
0000
1000
0000
,
0001
0000
0001
0000
,
0100
0100
0100
0000
,
0001
0000
1000
0000
,
0000
0000
1000
0000
,
0100
0000
0100
0000
,
0000
0000
1000
0000
,
0001
0000
0001
0000
,
0000
0000
0100
0000
,
0100
0000
0001
0000
,
0000
0000
1000
0000
,
1000
0000
1000
0000
,
0000
0000
0100
0000
,
0010
0000
0010
0000
,
0000
0000
0001
0000
,
1000
0000
1000
0000
,
0000
0000
0100
0000
,
1000
0000
1000
0000
,
0000
0000
0001
0000
,
1000
0000
0000
0000
,
0000
0000
0000
0000
,
0000
0000
0000
0000
,
0000
0000
0000
0000
,
1000
0000
0000
0000
,
0001
0000
0000
0000
,
1000
0000
0000
0000
,
0100
0000
0100
0000
,
0000
0000
0010
0000
,
0000
0000
0001
0000
,
0000
0000
1000
0000
,
1000
0000
0000
0000
,
0001
0000
0000
0000
,
1000
0000
0000
0000
,
0000
0000
1000
0000
,
0001
0000
0000
0000
,
0001
0000
0000
0000
,
0100
0000
0000
0000
,
0010
0000
0000
0000
,
0100
0000
0100
0000
,
0001
0000
0000
0000
,
0001
0001
0000
0000
,
0001
0000
0000
0000
,
1000
1000
0000
0000
,
1000
0000
0000
0000
,
0100
0100
0000
0000
,
0100
0000
0000
0000
,
0010
0010
0000
0000
,
0010
0000
0001
0000
,
0001
0000
0000
0000
,
1000
0000
1000
0000
,
0001
0000
0000
0000
,
0100
0000
0100
0000
,
0010
0000
0000
0000
,
1000
0000
0001
0000
,
0000
0001
0001
0000
,
1000
0000
1000
0000
,
0000
0000
0001
0000
,
0100
0000
0100
0000
,
0000
0010
0010
0000
,
1000
0000
1000
0000
,
0000
0000
0001
0000
,
0010
0010
0010
0000
,
0100
0000
0100
0000
,
2000
0000
0000
0000
,
0000
0000
0000
0000
,
0000
0000
0000
0000
,
0000
0000
0000
0000
,
0000
0000
0000
0000
,
0000
0000
0000
0000
,
3000
0000
0000
0000
;

//---------------dance-single - ----------------
#NOTES:
     dance-single:
     :
     Easy:
     5:
     0.354,0.592,0.147,0.042,0.000: // measure 1
0000
0000
0000
0000
,  // measure 2
0000
0000
0000
0000
,  // measure 3
0000
0000
0000
0000
,  // measure 4
0000
0000
0000
0000
,  // measure 5
0000
0000
0000
0000
,  // measure 6
1000
0000
0001
0000
,  // measure 7
0100
0100
0100
0000
,  // measure 8
0001
1000
0001
0000
,  // measure 9
0100
0010
0100
0000
,  // measure 10
0000
0000
0100
0000
,  // measure 11
0001
0001
0001
0000
,  // measure 12
1000
0100
1000
0000
,  // measure 13
0010
0010
0010
0000
,  // measure 14
0110
0000
1000
0000
,  // measure 15
0001
0100
0001
1000
,  // measure 16
0000
1000
0100
0010
,  // measure 17
0100
1000
1000
1000
,  // measure 18
0000
0001
0100
0001
,  // measure 19
0001
0001
0010
0000
,  // measure 20
2000
3002
2003
3001
,  // measure 21
1001
0110
1001
1001
,  // measure 22
1000
0100
0010
0100
,  // measure 23
1000
0000
1000
0000
,  // measure 24
0001
0010
0100
1000
,  // measure 25
0001
0001
0001
0000
,  // measure 26
1000
0000
1000
0000
,  // measure 27
0001
0010
0100
0000
,  // measure 28
0100
0010
0001
1000
,  // measure 29
0010
0010
0010
0000
,  // measure 30
1000
0001
1000
0000
,  // measure 31
0001
0000
0100
0000
,  // measure 32
1000
0100
0010
0100
,  // measure 33
0010
0010
0010
0000
,  // measure 34
1000
1000
0001
0001
,  // measure 35
0010
0100
0010
0000
,  // measure 36
0001
1000
0001
1000
,  // measure 37
0001
0010
0100
0000
,  // measure 38
1001
0000
0000
0000
,  // measure 39
0000
0000
0000
0000
,  // measure 40
0000
0000
0000
0000
,  // measure 41
0000
0000
0000
0000
,  // measure 42
1000
1000
0001
0001
,  // measure 43
0010
0100
0000
0000
,  // measure 44
0100
0010
0001
1000
,  // measure 45
0001
0001
0001
0000
,  // measure 46
0000
1000
0100
1000
,  // measure 47
1000
0001
0001
0000
,  // measure 48
0000
1000
0100
0010
,  // measure 49
0100
1000
1000
1000
,  // measure 50
0000
0001
0100
0001
,  // measure 51
0100
0010
1000
0000
,  // measure 52
0000
1000
1000
0001
,  // measure 53
0001
0010
0000
0000
,  // measure 54
0100
1000
0100
1000
,  // measure 55
0001
0000
0001
0000
,  // measure 56
1000
0000
1000
0000
,  // measure 57
0001
0100
0001
0000
,  // measure 58
0000
1000
1000
0001
,  // measure 59
1001
0000
0000
0000
,  // measure 60
1000
0001
0100
0010
,  // measure 61
0110
0000
0000
0000
,  // measure 62
0001
0010
0100
1000
,  // measure 63
1100
0000
0000
0000
,  // measure 64
1000
0100
0010
0001
,  // measure 65
0011
0000
0000
0000
,  // measure 66
1000
0100
1000
1000
,  // measure 67
0001
0010
0001
0000
,  // measure 68
1000
0001
1000
1000
,  // measure 69
0010
0010
0010
0000
,  // measure 70
0100
0001
0100
0100
,  // measure 71
0010
1000
0100
0000
,  // measure 72
0010
0001
0010
0100
,  // measure 73
1000
0000
1000
0000
,  // measure 74
0001
0000
0001
0000
,  // measure 75
1000
0100
0010
0100
,  // measure 76
1000
0000
1000
0000
,  // measure 77
0101
0101
0101
0000
,  // measure 78
1000
0001
0010
0000
,  // measure 79
0010
0100
1000
0000
,  // measure 80
0001
0010
0100
0010
,  // measure 81
0001
0001
1001
0000
,  // measure 82
2000
0000
0000
0000
,  // measure 83
0000
0000
0000
0000
,  // measure 84
0000
0000
0000
0000
,  // measure 85
0000
0000
0000
0000
,  // measure 86
0000
0000
0000
0000
,  // measure 87
0000
0000
0000
0000
,  // measure 88
3000
0000
0000
0000
;

//---------------dance-single - ----------------
#NOTES:
     dance-single:
     :
     Medium:
     7:
     0.501,0.592,0.188,0.115,0.000:
0000
0000
0000
0000
,
0000
0000
0000
0000
,
0000
0000
0000
0000
,
0000
0000
0000
0000
,
0000
0000
0000
0000
,
1000
0000
0000
1000
0100
0000
0000
0010
,
0000
0100
0000
0000
1000
0000
0000
0000
,
0001
0000
0000
0100
0000
0100
0001
0000
,
0001
0000
0100
0000
0010
0100
0000
0000
,
1000
0000
0000
0100
0001
0000
0000
0001
,
0000
0001
0010
0000
1100
0000
0000
0000
,
1000
0000
0100
0000
0010
0100
0010
0000
,
0002
2003
3002
0003
,
1100
0000
0000
0001
0100
0000
0000
1000
,
0000
0100
0000
0001
0010
0000
1100
0000
,
0000
0000
1000
0000
0001
0000
0000
0100
,
0000
0010
0000
0010
0100
0000
0000
0000
,
1001
0000
1000
0000
,
0100
0001
0100
0000
,
2000
3020
0032
0013
,
1010
0101
1100
0101
,
1000
0100
1000
0010
,
0100
0000
0001
0010
0001
0000
1000
0000
,
0100
0000
0010
0000
0100
1000
0000
1000
,
0000
1000
0100
0000
0011
0000
0000
0000
,
1000
0100
1000
0001
,
0010
0000
0010
0100
0010
0000
0100
0000
,
1000
0000
0010
0000
0100
0001
0000
0001
,
0000
0001
0100
0000
0110
0000
0000
0000
,
1000
0100
0010
0000
0100
0000
1000
0000
,
0001
0000
1000
0100
0010
0000
0001
0000
,
1000
0000
0010
0000
0100
0010
0000
0010
,
0000
0010
0100
0000
1001
0000
0000
0000
,
1000
0100
1000
0000
0001
0100
0001
0000
,
1000
0100
0010
0100
,
1100
0000
1100
0000
0101
0000
0000
1000
,
0000
0001
0001
0000
,
2000
0000
0000
0000
,
0000
0000
0000
0000
,
0000
0000
0000
0000
,
0000
0000
0000
0000
,
3001
0000
0100
0000
0100
0000
0001
0010
,
0100
1000
1000
0010
,
0100
0001
0100
0010
,
1000
0000
1000
0001
0100
0000
0000
0000
,
0000
0000
1000
0100
0010
0000
0100
0010
,
0001
0000
1000
0000
0001
0010
0001
0000
,
0000
0000
0001
0100
0010
0000
0100
0010
,
1000
0000
0100
0000
0010
0100
1000
0000
,
0000
0000
0100
1000
0010
0000
0010
0000
,
0001
0000
1000
0100
1000
0000
0000
0000
,
0000
0001
0001
0000
1000
0000
0001
0000
,
1000
0100
1000
0100
0000
0000
0000
0000
,
0010
0000
0001
0000
1000
0100
1000
0000
,
0001
0100
0001
0000
,
1000
0010
0100
0100
,
0101
0000
1100
0000
,
1000
0100
1000
1000
,
0001
0000
0001
0010
0000
0010
0001
0000
,
1000
0010
1000
1000
,
0010
0000
0010
0100
0000
0100
0010
0000
,
0100
0001
0001
0010
,
0100
0000
1000
0100
0000
0100
1000
0000
,
0001
0100
0010
0100
,
0100
0000
0001
1000
0000
1000
0001
0000
,
1000
0100
1000
0000
0001
0000
0100
0000
,
0010
0000
0010
0100
0010
0000
0010
0000
,
1000
0001
1000
0000
1000
0000
0100
0000
,
0010
0010
0020
0030
,
0010
0001
0010
0000
0001
0000
1000
0000
,
0010
0000
0100
0010
0100
0000
0100
0000
,
0001
0000
0010
0000
0100
0010
0000
0100
,
0000
1000
0001
0000
2000
0000
3000
0000
,
0001
0100
0001
0100
0001
0000
1000
0000
,
0010
0000
0100
0010
0100
0000
0100
0000
,
0001
0010
0001
0010
0001
0010
0000
0010
,
0000
0010
0001
0000
1001
0000
0000
0000
,
1000
0010
1000
0000
0001
0100
0001
0000
,
0001
0000
1000
0100
1000
0000
1000
0000
,
0010
0100
0010
0000
0010
0000
0100
0000
,
1000
0001
0001
1000
,
2002
0000
0000
0000
,
0000
0000
0000
0000
,
0000
0000
0000
0000
,
0000
0000
0000
0000
,
0000
0000
0000
0000
,
0000
0000
0000
0000
,
3003
0000
0000
0000
;

//---------------dance-single - ----------------
#NOTES:
     dance-single:
     :
     Hard:
     9:
     0.757,0.820,0.785,0.188,0.000:
0000
0000
0000
0000
,
0000
0000
0000
0000
,
0000
0000
0000
0000
,
1000
0001
1000
0001
,
1000
0001
1000
0001
1000
0001
1000
0001
,
1001
0000
0000
1000
0100
0000
0000
0011
,
0000
1100
0000
0001
0100
0000
0000
0000
,
0010
0100
0001
1000
0100
0010
0002
0000
,
1000
0000
0103
0000
0010
0100
0000
0000
,
1001
0000
0000
1000
0100
0000
0000
1100
,
0000
0011
0000
0010
0100
0000
0000
0000
,
1000
0010
1000
0100
0001
0100
1000
0000
,
0011
1010
0011
0000
,
1001
0000
0000
0001
0100
0000
0000
1010
,
0000
0001
0100
0000
0001
0010
0001
0000
,
1100
0000
1000
0001
0100
0001
0010
0100
,
1000
0000
0001
0000
0100
0001
0100
0000
,
1100
0000
0001
0010
0100
1000
0001
0101
,
0000
1100
0000
0000
0101
0000
0000
0000
,
0002
0023
0230
1300
,
0110
1001
0110
1001
,
1000
0010
0100
0001
0010
0100
1000
0000
,
1001
0000
0010
0100
0010
0000
0110
0000
,
0100
1000
0001
0100
0010
0100
0000
0100
,
0000
0100
0001
0000
2002
0000
3003
0000
,
0001
0100
0010
1000
0100
0010
0001
0000
,
0110
0000
0100
0010
0100
0000
0110
0000
,
0010
0001
1000
0100
0010
0100
0000
0100
,
0000
0100
1000
0000
2002
0000
3003
0000
,
0001
0100
1000
0100
0001
1000
0100
0000
,
0011
0000
0100
1000
0100
0000
1100
0000
,
0001
0100
1000
0100
0001
1000
0000
1000
,
0000
1000
0001
0000
0220
0000
0330
0000
,
1000
0100
0001
0100
1000
0001
0100
0000
,
1010
0000
0001
0100
0001
0000
1100
0000
,
1000
0100
0001
0100
0010
0001
0000
0001
,
0000
0001
0100
0000
0220
0000
0330
0000
,
2002
0000
0000
0000
,
0000
0000
0000
0000
,
0000
0000
0000
0000
,
0000
0000
0000
3003
,
1000
0100
1000
0010
1000
0000
0001
0100
,
0010
0100
0001
0000
1000
0000
1000
0000
,
0100
0000
0100
0010
0001
0100
0010
0001
,
0010
0000
0010
1000
0010
0000
0101
0000
,
0101
0000
1000
0010
0100
0010
0001
0010
,
0100
0000
0001
0000
0010
1000
0010
0000
,
1001
0000
0010
0100
0010
0000
1000
0001
,
1000
0000
1001
0000
0100
0010
0100
0000
,
1001
1000
0010
0001
0010
0100
0010
1000
,
0100
1000
0000
0010
0100
0000
0101
0000
,
1100
0002
0100
0103
,
0100
1000
0100
1000
1100
0000
0101
0000
,
0011
0000
1100
0000
0001
0100
0001
0010
,
0100
1000
0000
1000
0001
0000
0110
0000
,
1001
0000
1100
0000
0001
0100
0001
0000
,
1000
0100
0000
0100
1000
0000
0110
0000
,
1001
1000
0100
0010
1000
0010
0001
0100
,
0101
0000
1000
1100
0000
0001
0100
0001
,
1000
0100
0010
0100
0001
0100
0010
0001
,
0011
0000
1000
1100
0000
1000
0100
1000
,
0001
0100
0001
1000
0100
1000
0010
0100
,
0110
0000
1000
1001
0000
0001
0010
0001
,
1000
0010
0001
0010
0100
0010
1000
0000
,
0101
0000
1000
1010
0000
1000
0010
1000
,
0001
0010
1000
0010
0100
0010
0001
0000
,
1001
0000
0001
0100
1000
0000
1100
0000
,
0010
1000
0001
0010
0100
1000
0000
1000
,
0000
0001
0010
0000
1100
0000
0011
0000
,
0001
0100
1000
0100
0010
1000
0100
0000
,
0011
0000
1000
0100
1000
0000
0101
0000
,
0100
1000
0100
0001
0010
0100
0000
1100
,
0000
1000
0100
0000
0011
0000
1100
0000
,
1000
0010
0001
0010
0100
0010
0001
0000
,
0110
0000
1000
0010
0001
0000
0110
0000
,
0001
1000
0100
0010
0001
0100
0000
1010
,
0000
0001
0010
0000
1100
0000
0101
0000
,
1000
0100
0001
0100
0010
0001
0010
0000
,
0001
0010
1000
0001
0100
0000
1100
0000
,
0001
0100
0010
1000
0100
0010
0000
0110
,
0000
0010
1001
0000
2000
0000
3000
0000
,
0202
0000
0000
0000
,
0000
0000
0000
0000
,
0000
0000
0000
0000
,
0000
0000
0000
0000
,
0000
0000
0000
0000
,
0000
0000
0000
0000
,
0303
0000
0000
0000
;
