#TITLE:Right Back;
#SUBTITLE:;
#ARTIST:TANUKI;
#TITLETRANSLIT:;
#SUBTITLETRANSLIT:;
#ARTISTTRANSLIT:;
#GENRE:UK Hardcore;
#CREDIT:Thumbsy;
#MENUCOLOR:;
#METERTYPE:DDR;
#BANNER:Right Back BN.png;
#BACKGROUND:Right Back BG.png;
#LYRICSPATH:;
#CDTITLE:CDTitle v1.5.png;
#MUSIC:Right Back.mp3;
#OFFSET:1.140;
#SAMPLESTART:55.120;
#SAMPLELENGTH:11.900;
#SELECTABLE:YES;
#LISTSORT:;
#BPMS:0.000=175.010;
#STOPS:;
#BGCHANGES:3.325=Right Back.avi=1.000=1=0=0,
99999=-nosongbg-=1.000=0=0=0 // don't automatically add -songbackground-
;
#ATTACKS:;

//---------------dance-single - ----------------
#NOTES:
     dance-single:
     :
     Beginner:
     2:
     0.108,0.170,0.018,0.000,0.000:
0000
0000
0000
0000
,
0000
0000
0000
0000
,
0000
0000
0000
0000
,
0000
0000
0000
0000
,
0000
0000
0000
0000
,
0000
0000
0000
0000
,
1000
0000
0000
0000
,
0001
0000
0000
0000
,
0001
0000
0001
0000
,
1000
0000
0000
0000
,
0010
0000
0000
0000
,
0100
0000
0000
0000
,
0010
0000
0010
0000
,
0010
0000
0000
0000
,
1000
0000
0000
0000
,
0001
0000
0000
0000
,
1000
0000
0001
0000
,
1000
0000
0000
0000
,
1000
0000
0000
0000
,
0000
0000
0000
0000
,
0001
0000
0000
0000
,
0010
0000
0000
0000
,
0100
0000
0000
0000
,
0000
0000
0000
0000
,
0010
0000
0000
0000
,
0001
0000
0000
0000
,
1000
0000
0000
0000
,
0000
0000
0000
0000
,
0001
0000
0000
0000
,
1000
0000
0000
0000
,
0010
0000
0000
0000
,
0000
0000
0000
0000
,
0100
0000
0000
0000
,
0001
0000
0000
0000
,
1000
0000
0000
0000
,
1000
0000
0000
0000
,
0001
0000
0000
0000
,
0001
0000
0000
0000
,
0010
0000
0010
0000
,
0010
0000
0010
0000
,
0100
0100
0100
0000
,
0000
0000
0000
0000
,
1000
0000
1000
0000
,
0100
0000
0100
0000
,
0001
0000
0001
0000
,
0100
0000
0100
0000
,
0010
0000
0000
0000
,
0001
0000
0000
0000
,
1000
0000
0000
0000
,
0010
0000
0000
0000
,
0100
0000
0100
0000
,
0001
0000
0001
0000
,
1000
0000
1000
0000
,
0010
0000
0010
0000
,
0100
0000
0000
0000
,
0001
0000
0000
0000
,
0010
0000
0000
0000
,
1001
0000
0000
0000
,
1000
0000
0000
0000
,
0001
0000
0010
0000
,
0010
0000
0000
0000
,
0100
0000
0100
0000
,
1000
0000
0000
0000
,
0000
0000
1000
0000
,
0001
0000
0000
0000
,
0100
0000
0000
0000
,
0010
0000
0000
0000
,
0010
0000
1000
0000
,
1000
0000
0000
0000
,
0100
0000
0000
0000
,
1001
0000
0000
0000
,
0000
0000
0000
0000
,
0001
0000
0000
0000
,
0000
0000
0000
0000
,
1000
0000
0000
0000
;

//---------------dance-single - ----------------
#NOTES:
     dance-single:
     :
     Easy:
     3:
     0.230,0.341,0.037,0.157,0.000:
0000
0000
0000
0000
,
0000
0000
0000
0000
,
0000
0000
0000
0000
,
0000
0000
0000
0000
,
0000
0000
0000
0000
,
0000
0000
0000
0000
,
1000
1000
0000
0001
,
0000
1000
0000
0001
,
0010
0100
1000
0001
,
1000
0000
1001
0000
,
0001
0001
0000
1000
,
0000
0001
0000
1000
,
0010
0100
0001
0100
,
0001
0000
0001
0000
,
0000
1000
0000
1000
,
0000
0100
0000
0000
,
0010
0010
0010
0010
,
0020
0000
0000
0030
,
0002
0000
0000
0000
,
0000
0000
0000
0003
,
2000
0000
0000
3000
,
0020
0000
0000
0030
,
0200
0000
0000
0000
,
0300
0000
0001
0000
,
0002
0000
0000
0003
,
2000
0000
0000
3000
,
2000
0000
0000
0000
,
3000
0000
0100
0000
,
0200
0000
0000
0300
,
0002
0000
0000
0003
,
0200
0000
0000
0000
,
0300
0000
0010
0000
,
0002
0000
0000
0003
,
2000
0000
0000
3000
,
0001
0001
0001
0000
,
1000
1000
1000
0000
,
0001
0010
0100
0000
,
1000
0010
0100
0000
,
0001
0000
1000
0000
,
0001
0000
1000
0000
,
0001
1000
0001
1000
,
0000
0000
0000
0000
,
1000
1000
0100
0000
,
1000
1000
0100
0000
,
0010
0001
0010
0001
,
1000
1000
1000
0000
,
0001
0100
0010
0100
,
0010
1000
0001
0000
,
0100
0000
0010
0000
,
1001
0000
0000
0000
,
1000
1000
0100
1000
,
0001
0001
0100
0001
,
0010
0000
0100
0000
,
1000
1000
0001
0000
,
0100
0000
0001
0000
,
1000
1000
0100
0000
,
0010
0001
0100
0010
,
1001
0000
0000
0000
,
1000
0100
1000
0000
,
1000
0100
1000
0000
,
0001
0010
0100
0000
,
0100
0010
0001
0000
,
1000
0001
1000
0000
,
0001
1000
0002
0100
,
0203
0001
0301
0001
,
0010
0100
1000
0001
,
1000
0010
1000
0000
,
1000
0010
1000
0000
,
0001
0100
0010
0000
,
0010
0100
0001
0000
,
1001
0000
0000
0000
,
0000
0000
2000
0000
,
3002
0000
0000
0000
,
0000
0000
0000
0003
,
1000
0000
0000
0000
;

//---------------dance-single - ----------------
#NOTES:
     dance-single:
     :
     Medium:
     5:
     0.291,0.375,0.074,0.193,0.055:
0000
0000
0000
0000
,
0000
0000
0000
0000
,
0000
0000
0000
0000
,
0000
0000
0000
0000
,
0000
0000
0000
0000
,
0000
0000
0000
0000
,
1000
0000
0000
0100
0000
0000
0000
0000
,
1000
0010
0100
0001
,
0001
0000
0000
1000
0000
0000
0001
0000
,
2000
3000
0110
0000
,
1000
0100
0010
0001
,
1000
0100
0010
0001
,
1000
0000
0000
0001
0000
0000
0001
0000
,
0100
0100
0100
0100
,
0000
1001
0001
0010
,
0000
0001
0010
0000
,
1001
0000
0000
0000
,
0000
0000
1000
0000
,
0002
0000
0000
0000
,
0000
0000
2003
0000
,
3200
0000
0000
0000
,
0320
0000
0000
0000
,
0032
0000
0000
0000
,
0000
0000
2003
0000
,
3020
0000
0000
0000
,
0230
0000
0000
0000
,
0302
0000
0000
0000
,
0000
0000
2003
0000
,
3200
0000
0000
0000
,
2300
0000
0000
0000
,
3002
0000
0000
0000
,
0000
0000
0203
0000
,
0320
0000
0000
0000
,
2030
0000
0000
0000
,
3001
0010
0100
0010
,
0001
0001
0001
0001
,
1000
0100
0010
0100
,
1000
1000
1000
1000
,
0001
0100
0010
1000
,
0100
0010
0001
1000
,
0100
0001
0010
1000
,
0000
0000
0000
0000
,
0001
0000
0100
0000
0001
0000
1000
0100
,
1000
0000
0001
0000
0010
0000
0001
0100
,
0001
0000
1000
0000
0100
0000
0010
0100
,
0010
0100
1000
0000
,
1000
0000
0001
0000
0001
0000
0010
0100
,
0010
0000
0100
0000
1000
0000
0001
0100
,
0001
1000
0100
0010
,
1001
0000
0000
0000
,
1000
0000
0100
0000
1000
0000
0100
0010
,
0100
0000
1000
0000
0100
0000
0010
0001
,
0010
0000
0100
0000
1000
0000
0001
0100
,
0001
0100
0001
0000
,
0010
0000
0100
0000
1000
0000
0001
0100
,
0001
0000
1000
0000
0010
0000
0100
0010
,
0100
0000
0001
0000
,
1001
0000
0000
0000
,
1000
0000
0000
0000
1000
0000
0000
0001
0000
0000
0000
0000
0100
0000
0000
0000
,
0010
0000
0000
0000
0010
0000
0000
0100
0000
0000
0000
0000
0001
0000
0000
0000
,
1000
0000
0000
0000
1000
0000
0000
0100
0000
0000
0000
0000
0010
0000
0000
0000
,
0001
0000
0000
0000
0001
0000
0000
0100
0000
0000
0000
0000
0001
0000
0000
0000
,
2000
0000
0000
0000
0001
0000
0000
0001
0000
0000
0000
0000
3100
0000
0000
0000
,
0010
0000
0000
0000
0010
0000
0000
0001
0000
0000
0000
0000
0001
0000
0000
0000
,
0200
0000
0000
0000
0010
0000
0000
0010
0000
0000
0000
0000
0301
0000
0000
0000
,
1000
0000
0000
0000
1000
0000
0000
0001
0000
0000
0000
0000
1000
0000
0000
0000
,
0000
0000
0000
0000
1001
0000
0000
1000
0000
0000
0001
0000
0000
0000
0000
0000
,
0010
0000
0000
0000
0010
0000
0000
0001
0000
0000
1000
0000
0000
0000
0000
0000
,
0001
0000
0000
0000
0001
0000
0000
1000
0000
0000
0010
0000
0000
0000
0000
0000
,
0100
0000
0000
0000
0100
0000
0000
0010
0000
0000
1000
0000
0000
0000
0000
0000
,
1001
0000
0000
0000
,
0000
0000
2000
0000
,
3200
0000
0000
0000
,
0000
0000
0000
0300
,
0011
0000
0000
0000
;

//---------------dance-single - ----------------
#NOTES:
     dance-single:
     :
     Hard:
     7:
     0.386,0.477,0.101,0.175,0.286: // measure 1
0000
0000
0000
0000
,  // measure 2
0000
0000
0000
0000
,  // measure 3
0000
0000
0000
0000
,  // measure 4
0000
0000
0000
0000
,  // measure 5
0000
0000
0000
0000
,  // measure 6
0000
0000
0000
0000
,  // measure 7
1000
0000
0000
0001
0000
0000
0001
0000
0000
0000
0000
0000
0100
0000
0000
0000
,  // measure 8
0010
1000
0100
0010
,  // measure 9
0001
0000
0000
0001
0000
0000
1000
0000
0000
0000
1000
0000
0100
0000
0000
0000
,  // measure 10
0000
MMMM
0000
0000
1001
0000
0000
0000
,  // measure 11
1000
0100
0010
0001
0000
0001
0100
0000
,  // measure 12
0001
0010
0100
1000
,  // measure 13
0001
0100
0010
1000
0000
1000
0100
0000
,  // measure 14
1000
0100
0010
0001
,  // measure 15
0000
0000
1000
0000
0000
1000
0000
0000
1000
0000
0000
1000
0000
0000
1000
0000
,  // measure 16
0000
0000
0001
0000
0000
0001
0000
0000
0001
0000
0000
0001
0000
0000
0001
0000
,  // measure 17
0000
0000
0010
0000
0000
0010
0000
0000
0010
0000
0000
0010
0000
0000
0010
0000
,  // measure 18
1001
0000
1000
0000
,  // measure 19
0102
0000
0000
0000
,  // measure 20
0000
0000
2000
0003
,  // measure 21
3020
0000
0000
0000
,  // measure 22
2000
0000
0000
0030
,  // measure 23
3200
0000
0000
0000
,  // measure 24
0000
0000
0000
0000
0320
0000
0031
1000
,  // measure 25
0002
0000
0000
0000
,  // measure 26
2000
0000
0000
0003
,  // measure 27
3020
0000
0000
0000
,  // measure 28
0000
0000
0230
0000
,  // measure 29
0302
0000
0000
0000
,  // measure 30
0023
0000
0000
0000
,  // measure 31
0230
0000
0000
0000
,  // measure 32
0000
0000
0000
0000
0000
0000
1300
0001
,  // measure 33
0020
0000
0000
0000
,  // measure 34
0032
0000
0000
0000
,  // measure 35
1003
0000
1000
0000
1000
0000
0001
0100
,  // measure 36
0001
0000
0001
0000
0001
0000
0010
0100
,  // measure 37
1000
0000
1000
0000
1000
0000
0001
0010
,  // measure 38
0001
0000
0001
0000
0001
0000
0001
0100
,  // measure 39
0010
0000
0000
0010
0000
0000
1000
0000
0001
0000
0000
0001
0000
0000
0010
0000
,  // measure 40
0100
0000
0000
0100
0000
0000
1000
0000
0010
0000
0000
0010
0000
0000
0100
0000
,  // measure 41
0001
0000
0000
1000
0100
0000
0000
1000
0001
0000
0000
1000
0010
0000
0000
0100
,  // measure 42
0000
0000
0000
0000
,  // measure 43
0001
0000
0000
0001
0000
0000
1000
0000
0000
0100
0000
0000
0010
0000
0001
0000
,  // measure 44
0010
0000
0000
0010
0000
0000
0001
0000
0000
0001
0000
0000
1000
0000
1000
0000
,  // measure 45
0010
0000
0000
0100
0000
0000
0010
0000
0000
0010
0000
0000
1000
0000
0100
0000
,  // measure 46
0010
0000
0000
0010
0000
0000
0001
0000
0000
0010
0000
0000
1000
0000
0001
0000
,  // measure 47
0100
0000
0000
0010
0000
0000
0001
0000
0000
0001
0000
0000
1000
0000
0010
0000
,  // measure 48
1000
0000
0000
1000
0000
0000
0001
0000
0000
0001
0000
0000
0100
0000
1000
0000
,  // measure 49
0100
0000
0000
0010
0000
0000
1000
0000
0000
0100
0000
0000
0000
0000
0000
0000
,  // measure 50
1001
0000
0000
0000
0000
0000
0000
1000
,  // measure 51
1001
0000
0000
1000
0000
0000
0100
0000
0000
0010
0000
0000
1000
0000
1000
0000
,  // measure 52
1000
0000
0000
0010
0000
0000
0100
0000
0000
0100
0000
0000
1000
0000
0100
0000
,  // measure 53
0001
0000
0000
0100
0000
0000
0010
0000
0000
0010
0000
0000
1000
0000
0001
0000
,  // measure 54
1000
0000
0000
0010
0000
0000
0001
0000
0000
0001
0000
0000
1000
0000
0010
0000
,  // measure 55
0100
0000
0000
0100
0000
0000
0001
0000
0000
0001
0000
0000
0001
0000
0010
0000
,  // measure 56
0100
0000
0000
0100
0000
0000
0010
0000
0000
0001
0000
0000
1000
0000
0010
0000
,  // measure 57
0100
0000
0000
0100
0000
0000
0001
0000
0000
0010
0000
0000
0000
0000
0000
0000
,  // measure 58
1100
0000
0000
0000
,  // measure 59
1001
0000
0000
0000
0010
0000
0000
0001
0000
0000
1000
0000
0000
0010
0000
0000
,  // measure 60
0100
0000
0000
0000
0001
0000
0000
1000
0000
0000
0010
0000
0000
1000
0000
0000
,  // measure 61
1000
0000
0000
0000
0001
0000
0000
0001
0000
0000
0010
0000
0000
0100
0000
0000
,  // measure 62
1000
0000
0000
0000
1000
0000
0000
0001
0000
0000
0100
0000
0000
0010
0000
0000
,  // measure 63
0100
0000
0000
0000
0001
0000
0000
1000
0000
0000
0100
0000
0000
0010
0000
0000
,  // measure 64
0001
0001
0002
1000
,  // measure 65
2003
0010
0001
3010
,  // measure 66
0001
0000
1000
0100
0010
0001
0000
0000
,  // measure 67
0000
0000
MMMM
0000
1000
0000
0000
1000
0000
0000
0100
0000
0000
0010
0000
0000
,  // measure 68
1100
0000
0000
0000
0100
0000
0000
0001
0000
0000
0001
0000
0000
0100
0000
0000
,  // measure 69
0010
0000
0000
0000
0001
0000
0000
0100
0000
0000
0010
0000
0000
0100
0000
0000
,  // measure 70
1001
0000
0000
0000
1000
0000
0000
0100
0000
0000
0010
0000
0000
0010
0000
0000
,  // measure 71
1001
1000
0100
0010
,  // measure 72
0100
1000
0002
0100
,  // measure 73
0203
0010
0310
0001
,  // measure 74
0000
0000
0000
0000
,  // measure 75
1001
0000
0000
0000
;
