#TITLE:Prismatic;
#SUBTITLE:;
#ARTIST:P*Light feat. *airi;
#TITLETRANSLIT:;
#SUBTITLETRANSLIT:;
#ARTISTTRANSLIT:;
#GENRE:J-Core;
#CREDIT:Thumbsy;
#MENUCOLOR:;
#METERTYPE:DDR;
#BANNER:Prismatic-bn.png;
#BACKGROUND:Prismatic-bg.png;
#LYRICSPATH:;
#CDTITLE:CDTitle.png;
#MUSIC:Prismatic.mp3;
#OFFSET:1.012;
#SAMPLESTART:56.940;
#SAMPLELENGTH:12.000;
#SELECTABLE:YES;
#LISTSORT:;
#BPMS:0.000=170.005;
#STOPS:;
#BGCHANGES:;
#ATTACKS:;

//---------------dance-single - ----------------
#NOTES:
     dance-single:
     :
     Beginner:
     2:
     0.140,0.213,0.083,0.166,0.000:
0000
0000
0000
0000
,
1000
0000
0000
0000
,
0000
0000
0001
0000
,
0100
0000
0000
0000
,
0000
0000
0001
0000
,
1000
0000
0000
0000
,
0000
0000
0010
0000
,
0010
0000
0000
0000
,
0000
0000
1000
0000
,
0100
0000
0000
0000
,
0001
0000
0000
0000
,
0100
0000
0000
0000
,
0010
0000
0000
0000
,
1000
0000
0000
0000
,
1000
0000
0000
0000
,
0002
0000
0000
0000
,
0000
0000
0000
0003
,
1001
0000
0000
0000
,
0100
0000
0000
0000
,
0011
0000
0000
0000
,
1000
0000
0000
0000
,
1100
0000
0000
0000
,
0010
0000
0000
0000
,
0110
0000
0000
0000
,
2000
3000
0002
0003
,
0100
0000
0000
0000
,
0001
0000
0000
0000
,
0110
0000
0000
0000
,
0010
0000
0000
0000
,
0110
0000
1000
0000
,
0001
0000
0100
0000
,
0002
0003
2000
3000
,
0000
0000
0000
1001
,
0000
0000
0000
0000
,
1000
0000
0000
0000
,
0001
0000
0000
0000
,
1000
0000
0000
0000
,
0100
0000
0000
0000
,
0010
0000
0000
0000
,
0100
0000
0000
0000
,
0001
0000
0000
0000
,
0000
1001
0000
0000
,
0020
0000
0000
0030
,
2000
0000
0000
3000
,
0002
0000
0000
0003
,
0100
0000
0000
0000
,
0010
0000
0000
0000
,
1000
0000
0001
0000
,
2000
0000
0000
3000
,
0001
0000
1000
0000
,
0002
0000
0000
0003
,
0100
0000
0010
0000
,
0200
0000
0000
0300
,
0001
0000
0010
0000
,
0200
0000
0000
0300
,
0100
0000
0010
0000
,
0002
0000
0000
0003
,
2000
0000
0000
0000
,
0000
0000
0000
3000
,
0020
0000
0000
0030
,
1000
0000
0001
0000
,
0020
0000
0000
0000
,
0000
0000
0000
0030
,
1000
0000
1000
0000
,
0001
0000
0000
0000
,
1000
0000
0000
0000
,
0100
0000
0000
0000
,
0010
0000
0000
0000
,
0001
0000
0000
0000
,
0001
0000
0000
0000
,
0010
0000
0000
0000
,
0100
0000
0000
0000
,
1000
0000
0001
0000
,
0200
0000
0000
0000
,
0000
0000
0000
0300
,
0002
0000
0000
0000
,
0000
0000
0000
0003
,
2000
0000
0000
0000
,
0000
0000
0000
3000
,
0001
0000
0010
0000
,
1001
0000
0000
0000
,
1001
0000
2000
0000
,
0000
0000
0000
0000
,
0000
0000
0000
0000
,
0000
0000
0000
0000
,
0000
0000
3000
0000
;

//---------------dance-single - ----------------
#NOTES:
     dance-single:
     :
     Easy:
     4:
     0.259,0.354,0.083,0.240,0.000: // measure 1
0000
0000
0000
0000
,  // measure 2
1000
0000
0000
0001
,  // measure 3
0000
0000
1000
1000
,  // measure 4
0001
0000
0000
0100
,  // measure 5
0000
0000
0010
1000
,  // measure 6
0001
0000
0000
0010
,  // measure 7
0000
0000
1000
0001
,  // measure 8
1000
0000
0000
0100
,  // measure 9
0000
0000
0010
0001
,  // measure 10
1000
0000
0001
0000
,  // measure 11
0100
0100
0010
0000
,  // measure 12
1000
0000
0001
0000
,  // measure 13
0100
0100
0010
0000
,  // measure 14
0001
0000
0010
0000
,  // measure 15
0100
0010
0100
0000
,  // measure 16
2000
0000
0000
3000
,  // measure 17
2002
0000
0000
3003
,  // measure 18
0110
0000
0000
0000
,  // measure 19
2000
0000
0000
3000
,  // measure 20
0101
0000
0000
0000
,  // measure 21
2000
0000
0000
3000
,  // measure 22
0011
0000
0000
0000
,  // measure 23
0020
0000
0000
0030
,  // measure 24
1001
0000
0000
0000
,  // measure 25
0001
0010
0100
0000
,  // measure 26
0020
0000
0000
0000
,  // measure 27
0000
0000
0000
0030
,  // measure 28
1001
0000
0000
1000
,  // measure 29
0010
0010
0100
0001
,  // measure 30
0020
0000
0001
0030
,  // measure 31
0001
0000
0100
0000
,  // measure 32
0010
1000
0100
0010
,  // measure 33
0002
0000
0000
1003
,  // measure 34
0001
0100
0000
1000
,  // measure 35
0100
0010
0100
0002
,  // measure 36
1003
0100
0000
0010
,  // measure 37
0100
1000
0001
0020
,  // measure 38
0031
1000
0000
0010
,  // measure 39
0100
0001
0010
0200
,  // measure 40
0310
0010
0000
0001
,  // measure 41
1000
0001
0100
0020
,  // measure 42
0030
1000
1000
0100
,  // measure 43
1000
1000
0001
0010
,  // measure 44
0001
0100
0010
0200
,  // measure 45
0000
0000
0000
0300
,  // measure 46
0000
0001
0100
0002
,  // measure 47
0000
2003
0000
3002
,  // measure 48
0000
0003
0000
0000
,  // measure 49
0220
0000
0000
0330
,  // measure 50
1000
0001
0100
0000
,  // measure 51
0020
0000
0000
0030
,  // measure 52
1000
0100
0010
0000
,  // measure 53
0200
0000
0000
0300
,  // measure 54
0010
0100
0001
0000
,  // measure 55
0100
1000
0002
0003
,  // measure 56
0100
0010
1000
0000
,  // measure 57
0001
1000
0100
0020
,  // measure 58
0000
0000
0000
0000
,  // measure 59
0000
0000
0000
0030
,  // measure 60
2000
0001
0001
3100
,  // measure 61
0010
1000
0001
0010
,  // measure 62
0200
0000
0000
0300
,  // measure 63
0100
0100
0100
0100
,  // measure 64
0100
0100
0100
0100
,  // measure 65
1001
0000
0100
0000
,  // measure 66
1001
1000
0001
0100
,  // measure 67
0000
0010
1000
0001
,  // measure 68
0000
0001
1000
0001
,  // measure 69
0000
0010
0100
1000
,  // measure 70
0000
1000
0100
1000
,  // measure 71
0000
0001
0100
0001
,  // measure 72
0000
0100
0010
0000
,  // measure 73
1000
0000
0001
0000
,  // measure 74
2000
0000
0000
0000
,  // measure 75
0000
0000
0000
0200
,  // measure 76
0000
0000
0000
0000
,  // measure 77
0000
0000
3000
0320
,  // measure 78
0001
0000
0000
0000
,  // measure 79
0031
0000
0000
0000
,  // measure 80
0001
0010
0100
1000
,  // measure 81
1001
0000
0000
0000
,  // measure 82
0010
0000
0002
0000
,  // measure 83
0000
0000
0000
0000
,  // measure 84
0000
0000
0000
0000
,  // measure 85
0000
0000
0000
0000
,  // measure 86
0000
0000
0003
0000
;

//---------------dance-single - ----------------
#NOTES:
     dance-single:
     :
     Medium:
     7:
     0.434,0.567,0.191,0.332,0.070:
0000
0000
0000
0000
,
0100
0000
0000
0001
0000
0000
0100
0000
,
0000
0001
0000
0000
1000
0100
1000
0000
,
0100
0000
0000
0010
0000
0000
0100
0000
,
0000
0010
0000
0000
0010
0001
0010
0000
,
0100
0000
0000
1000
0000
0000
0100
0000
,
0000
1000
0000
0000
0001
0100
0001
0000
,
0100
0000
0000
0010
0000
0000
0100
0000
,
0000
0010
0000
0000
1000
0100
1000
0000
,
0002
0000
1003
0000
,
0010
0010
0100
0000
,
0002
0000
0013
0000
,
0100
0100
0020
0000
,
0030
0001
0100
0001
,
0000
0020
0000
0200
,
0000
0000
0000
0330
,
2002
0000
0000
3003
,
0110
0000
0000
0000
0000
0000
0110
0000
0000
0000
0000
0000
0000
0000
0000
1000
,
0000
0000
0000
0000
,
0001
0000
0000
0100
0000
0000
0101
0000
0000
0000
0000
0000
0000
0000
0000
0001
,
0000
0000
0000
0000
0000
0001
0000
0000
0000
0000
0000
0000
0000
0000
0000
0000
,
1000
0000
0000
0100
0000
0000
1100
0000
0000
0000
0000
0000
0000
0000
0000
0001
,
0000
0000
0000
0000
0000
0000
0000
0001
0000
0000
0000
0000
0000
0000
0000
0000
,
0010
0000
0000
0100
0000
0000
0110
0000
0000
0000
0000
0000
0000
0000
0000
0000
,
0002
0000
0000
1003
,
0000
0100
0000
0001
0000
0001
0000
0001
,
0000
0001
0000
0100
0000
0001
0000
1000
,
0000
0100
0000
0100
0000
0100
0000
0100
,
0000
0100
0000
0010
0000
0001
0000
0100
,
0010
1000
0010
0000
0010
0100
0010
0000
,
0001
0100
0001
0000
0001
0010
0001
0000
,
0001
1000
0001
1000
0001
1000
0001
0000
,
2002
0000
0003
3001
,
1000
0000
0000
1000
0000
0000
1000
0000
0001
0000
0000
0000
0001
0000
0000
0000
,
1000
0000
0000
0100
0000
0000
1000
0000
0100
0000
0000
0000
2000
0000
0000
0000
,
3001
0000
0000
0001
0000
0000
0001
0000
0100
0000
0000
0000
0100
0000
0000
0000
,
0010
0000
0000
1000
0000
0000
0010
0000
1000
0000
0000
0000
0002
0000
0000
0000
,
0013
0000
0000
0010
0000
0000
0010
0000
0001
0000
0000
0000
0001
0000
0000
0000
,
1000
0000
0000
0100
0000
0000
1000
0000
0100
0000
0000
0000
0020
0000
0000
0000
,
0130
0000
0000
0100
0000
0000
0100
0000
0010
0000
0000
0000
0001
0000
0000
0000
,
0100
0000
0000
0010
0000
0000
0100
0000
0010
0000
0100
0000
0002
0000
0000
0000
,
1003
2000
3200
2300
,
3020
0230
0320
0230
,
0302
0023
0230
2300
,
0001
0000
0000
0001
0000
0000
0001
0000
0001
0000
0000
0000
3001
0000
0000
0000
,
0000
2000
3002
0203
,
0300
0020
0030
2000
,
3001
0100
0001
0100
0001
1000
0001
1000
,
0002
0000
2000
3003
,
1000
0001
0100
0100
,
0010
0000
0100
0001
0000
1000
0100
0010
,
0001
1000
0010
0010
,
1000
0000
1000
0100
0000
0010
0100
1000
,
0001
0100
0001
0001
,
0010
0000
0001
1000
0000
1000
0100
1000
,
0001
0100
0010
1000
,
0001
0000
0100
1000
0000
1000
0100
0010
,
2000
0010
0100
3100
,
0001
0000
0100
0010
0000
0100
0001
1000
,
0100
0100
0010
0010
,
0001
0000
0001
0100
0000
1000
0100
0010
,
0002
1000
0010
0013
,
1000
0000
0010
0100
0000
1000
0100
0010
,
1000
0100
0010
0001
,
2002
0000
0000
3003
,
1100
0000
1100
0000
0001
0010
0001
0000
,
0011
0000
0011
0000
0100
0010
0100
0000
,
0110
0000
0110
0000
0100
0001
0100
0000
,
0101
0000
0101
0000
1000
0100
1000
0000
,
1100
0000
1001
0000
0100
0001
0100
0000
,
0101
0000
0110
0000
0100
0010
0100
0000
,
0110
0000
1010
0000
1000
0001
0000
1000
,
0000
0001
1000
0100
,
0002
0000
0000
0000
,
0000
0000
0000
2000
,
0000
0000
0003
0000
,
0000
0000
0000
3020
,
0001
0000
0000
0000
,
0001
0000
0000
0030
,
1000
0100
0010
0100
1000
0001
0010
0100
,
0010
0000
0000
0001
0000
0000
1000
0000
,
1001
0000
0200
0000
,
0000
0000
0000
0000
,
0000
0000
0000
0000
,
0000
0000
0000
0000
,
0000
0000
0300
0000
;

//---------------dance-single - ----------------
#NOTES:
     dance-single:
     :
     Hard:
     8:
     0.515,0.603,0.315,0.265,0.120:
0000
0000
0000
0000
,
1001
0000
1000
0100
0000
0010
0100
0000
,
0010
0001
0000
0001
0100
0001
1000
0000
,
0010
0000
1000
0100
0000
0100
1000
0000
,
0001
0100
0000
0001
0010
1000
0010
0000
,
0001
0000
0100
0010
0000
0100
0001
0000
,
1000
0001
0000
0100
0010
1000
0001
0000
,
0001
0000
0100
0001
0000
0100
0010
0000
,
0100
0001
0000
1000
0100
0001
0100
0000
,
1000
0001
0101
0000
,
0100
1000
0100
0000
0101
0000
0000
0000
,
0010
0100
1100
0000
,
0100
0001
0100
0000
1100
0000
0000
0000
,
1000
0002
0203
0320
,
0030
0002
0000
0023
,
0000
0000
0000
0030
,
1010
0000
0000
0000
0001
0100
0001
0000
,
1010
0000
0000
0000
0000
0000
1001
0000
0000
0000
0000
0000
0000
0000
0000
0001
,
0000
0000
0000
0010
0000
0001
0000
0000
0000
1000
0000
0000
0000
0000
0000
0000
,
1001
0000
0000
0110
0000
0000
1100
0000
0000
0000
0000
0000
0000
1000
0000
0100
,
0000
0000
0000
0001
0000
0100
0000
0000
0000
1000
0000
0000
0000
0000
0000
0000
,
1100
0000
0000
0101
0000
0000
1100
0000
0000
0000
0000
0000
0000
0001
0000
0100
,
0000
0000
0000
0010
0000
0000
0000
0100
0000
0000
0000
0000
0000
0000
0000
0000
,
0110
0000
0000
0101
0000
0000
1001
0000
0000
0000
1000
0000
0000
0000
0000
0000
,
0001
0010
0100
0000
,
1001
0100
0000
0010
0000
0100
0000
0001
,
0000
1000
0000
0100
0010
0100
1000
0000
,
0001
0100
0000
0100
0000
0010
0000
0100
,
0000
0001
0000
1000
0100
0010
0002
0000
,
1003
0100
1000
0100
0010
0001
0010
0001
,
1000
0010
0100
0001
0010
0100
1000
0010
,
1000
0100
0001
0100
1000
0010
0001
0010
,
2000
0000
3000
1001
,
0001
0000
0000
0100
0000
0000
0010
0000
0100
0000
0000
1000
0000
0000
0100
0000
,
0001
0000
0000
0010
0000
0000
0100
0000
0010
0000
0001
0000
2000
0000
0000
0000
,
3001
0000
0000
0010
0000
0000
0100
0000
0010
0000
0000
0001
0000
0000
1000
0000
,
0100
0000
0000
0010
0000
0000
0100
0000
1000
0000
0001
0000
0020
0000
0000
0000
,
1030
0000
0000
0010
0000
0000
0001
0000
0100
0000
0000
0010
0000
0000
0100
0000
,
0001
0000
0000
1000
0000
0000
0100
0000
0010
0000
0001
0000
2000
0000
0000
0000
,
3010
0000
0000
0001
0000
0000
0010
0000
0100
0000
0000
0001
0000
0000
1000
0000
,
0100
0000
0000
0010
0000
0000
0100
0000
0010
0000
0001
0000
0200
0000
0000
0000
,
0300
2000
3001
0200
,
0310
0200
1300
0200
,
0310
2000
3001
0020
,
0100
0000
0000
0100
0000
0000
0100
0000
0130
0000
1000
0000
0002
0000
0000
0000
,
0003
0020
0230
0320
,
0030
0002
0000
1003
,
0001
0100
1000
0100
0001
0100
1000
0100
,
0002
0000
0000
0000
1003
0100
0002
0000
,
0103
0100
0010
0010
,
0001
0000
1000
0100
0000
0010
0100
1000
,
0001
0001
1000
1000
,
0010
0000
0100
0001
0000
0010
0001
0100
,
0010
0010
1000
1000
,
0001
0000
0100
0010
0000
0010
0100
0001
,
1000
1000
0100
0100
,
1100
0000
0101
0000
0011
0000
0010
0200
,
1000
1000
0010
0310
,
0001
0000
1000
0100
0000
0001
0100
1000
,
0001
0001
0100
0100
,
0001
0000
0010
1000
0000
0010
0001
0100
,
0010
0010
0100
0100
,
0000
0010
0000
0010
0000
0010
0000
0010
,
1000
0001
0100
1000
0001
0010
1000
0001
,
1000
0100
0000
0100
0010
0001
0010
0000
,
0011
0000
1100
0000
0010
0001
0010
0000
,
0011
0000
0101
0000
0010
1000
0010
0000
,
1010
0000
0110
0000
1000
0001
1000
0000
,
1001
0000
0011
0000
0100
0010
0100
0000
,
0110
0000
1001
0000
1000
0100
0001
0000
,
0110
0000
0011
0000
0001
0010
1000
0000
,
0110
0000
1100
0000
0001
0100
0000
0101
,
0000
1000
0001
0200
,
0000
0000
0000
0000
,
0000
0000
0300
2000
,
0001
0000
0000
0000
,
0000
0000
3000
0020
,
1000
0000
0000
0000
,
0100
0000
0000
0030
,
0001
0100
0010
1000
0010
0100
0001
0010
,
0100
0000
1000
0100
0000
0001
0100
1000
,
2200
3000
0302
0020
,
0000
0000
0000
0000
,
0000
0000
0000
0000
,
0000
0000
0000
0000
,
0000
0000
0033
0000
;
